imdb
rating

7.8
In America

In America (2002)

Drama, Romance, Foreign

Full description

" Banned In America 2 DVDRip Xvid LKRG ".feeltheforce.biz

Size 585.849 MB   0 seeders     Added 2010-12-02 18:31:36

Stream torrent
Starting‥ You need BitLord! Get it from BitLord.com
To download or stream you need BitLord. Visit them at BitLord.com
  

Complete name : Banned in America 2 DVDRip Xvid BigPerm LKRG\Banned in America 2.avi
Format : AVI
Format/Info : Audio Video Interleave
File size : 559 MiB
Duration : 47mn 39s
Overall bit rate : 1 639 Kbps

Video
ID : 0
Format : MPEG-4 Visual
Format profile : Advanced Simple@L5
Format settings, BVOP : Yes
Format settings, QPel : No
Format settings, GMC : No warppoints
Format settings, Matrix : Default (H.263)
Codec ID : XVID
Codec ID/Hint : XviD
Duration : 47mn 39s
Bit rate : 1 499 Kbps
Width : 704 pixels
Height : 396 pixels
Display aspect ratio : 16:9
Frame rate : 29.970 fps
Resolution : 8 bits
Colorimetry : 4:2:0
Scan type : Progressive
Bits/(Pixel*Frame) : 0.179
Stream size : 511 MiB (91%)
Writing library : XviD 1.2.1 (UTC 2008-12-04)

Audio
ID : 1
Format : AC-3
Format/Info : Audio Coding 3
Codec ID : 2000
Duration : 47mn 39s
Bit rate mode : Constant
Bit rate : 128 Kbps
Channel(s) : 2 channels
Channel positions : Front: L R
Sampling rate : 48.0 KHz
Resolution : 16 bits
Stream size : 43.6 MiB (8%)
Alignment : Aligned on interleaves
Interleave, duration : 32 ms (0.96 video frame)
Banned in America 2.avi 585.84 MB
LKRG_NFO.nfo 9.198 KB
Gathering some info...

Register and log in Isohunt and see no captcha anymore!

4000 symbols left
Hash 9E2CD7566E4D4E1DD7420E5B5451DEF6543ABC17

Related torrents for " " Banned In America 2 DVDRip Xvid LKRG ".feeltheforce.biz"

Torrent search:

dvdrip