imdb
rating

5.4
The Wild

The Wild (2006)

Adventure, Animation, Family

Full description

" Trucks gone wild 2 ".feeltheforce.biz

Size 728.536 MB   0 seeders     Added 2010-12-02 18:34:42

Stream torrent
Starting‥ You need BitLord! Get it from BitLord.com
To download or stream you need BitLord. Visit them at BitLord.com
  

Format : MPEG-PS
File size : 695 MiB
Duration : 1h 9mn
Overall bit rate : 1 404 Kbps
Writing library : ROXIO Video Codec / 7.1.436.0 / AL / Copyright © 2001

Video
ID : 224 (0xE0)
Format : MPEG Video
Format version : Version 1
Format settings, BVOP : Yes
Format settings, Matrix : Default
Duration : 1h 9mn
Bit rate mode : Constant
Bit rate : 1 152 Kbps
Width : 352 pixels
Height : 240 pixels
Display aspect ratio : 4:3
Frame rate : 29.970 fps
Standard : NTSC
Color space : YUV
Bit depth : 8 bits
Scan type : Progressive
Compression mode : Lossy
Bits/(Pixel*Frame) : 0.455
Stream size : 570 MiB (82%)
Writing library : ROXIO Video Codec / 7.1.436.0 / AL / Copyright © 2001

Audio
ID : 192 (0xC0)
Format : MPEG Audio
Format version : Version 1
Format profile : Layer 2
Duration : 1h 9mn
Bit rate mode : Constant
Bit rate : 224 Kbps
Channel(s) : 2 channels
Sampling rate : 44.1 KHz
Compression mode : Lossy
Stream size : 111 MiB (16%)
Trucks Gone Wild 2.mpg 728.536 MB
Gathering some info...

Register and log in Isohunt and see no captcha anymore!

4000 symbols left
Hash 7EF372B4EAAB490BD5BF8AD01F4306CABE83B3A0

Related torrents for "" Trucks gone wild 2 ".feeltheforce.biz"