imdb
rating

6.6
Due Date

Due Date (2010)

Comedy, Drama

Full description
quality   screener cam dvdrip telesync

" Due Date TS XViD - IMAGiNE ".feeltheforce.biz

Size 1.066 GB   0 seeders     Added 2010-12-04 01:19:30

Stream torrent
Starting‥ You need BitLord! Get it from BitLord.com
To download or stream you need BitLord. Visit them at BitLord.com
  

Ripper ...........: IMAGiNE IMDB Rating.......:7.2/10 

Video Codec.......: XVID Release Date......:03/12/10

Audio Codec.......:MP3 Theatre Date......:05/11/10

Audio Bitrate.....:128 Runtime.......:1h 29mn

Subtitles.........:NIL Language..........:ENGLISH

Resolution...... 672 x 304 IMDb URL..........:http://www.imdb.com/title/tt1231583/





DETAILS:



Video

ID : 0

Format : MPEG-4 Visual

Format profile : Advanced Simple@L5

Format settings, BVOP : Yes

Format settings, QPel : No

Format settings, GMC : No warppoints

Format settings, Matrix : Default (H.263)

Muxing mode : Packed bitstream

Codec ID : XVID

Codec ID/Hint : XviD

Duration : 1h 29mn

Bit rate : 1 421 Kbps

Width : 672 pixels

Height : 304 pixels

Display aspect ratio : 2.2

Frame rate : 23.976 fps

Resolution : 24 bits

Colorimetry : 4:2:0

Scan type : Progressive

Bits/(Pixel*Frame) : 0.290

Stream size : 913 MiB (91%)

Writing library : XviD 1.1.2 (UTC 2006-11-01)



Audio

ID : 1

Format : MPEG Audio

Format version : Version 1

Format profile : Layer 3

Codec ID : 55

Codec ID/Hint : MP3

Duration : 1h 29mn

Bit rate mode : Constant

Bit rate : 128 Kbps

Channel(s) : 2 channels

Sampling rate : 44.1 KHz

Resolution : 16 bits

Stream size : 82.3 MiB (8%)

Alignment : Split accross interleaves

Interleave, duration : 42 ms (1.00 video frame)

Interleave, preload duration : 500 ms





SOURCES:



VIDEO:Russian cam and Spanish cam ......Thanks both 

AUDIO:OWN LiNE

NOTES:



IMAGiNE bringing you another release..........Due Date 



Well sorry no new video folks.....so this is just our cam release but now muxed with some decent line audio.

Also our cam release was the full version,becuase we used the russian and spanish releases to make it

complete.

Video wise nothing to special but until a new source comes along nothing we can do 



Anyway Enjoy folks 

  

  
  
  
  
Due Date TS XViD - IMAGiNE.NFO 4.841 KB
Due Date TS XViD - IMAGiNE.part01.rar 15 MB
Due Date TS XViD - IMAGiNE.part01.sfv 8.857 KB
Gathering some info...

Register and log in Isohunt and see no captcha anymore!

4000 symbols left
Hash C42AF566CF8AE40B8BC933C7F14F25F83E2FC9E3

Related torrents for "" Due Date TS XViD - IMAGiNE ".feeltheforce.biz"

Torrent search:

telesync