imdb
rating

6.6
Ghost Hunters

Ghost Hunters (2004)

Sci-Fi & Fantasy, Reality

Full description

Ghost Hunters - S03E22 - Return to St. Augustine.[tNe.XViD].avi

Size 365.87 MB   0 seeders     Added 2010-12-04 04:01:45

Stream torrent
Starting‥ You need BitLord! Get it from 1BitLord.com
To download or stream you need BitLord. Visit them at BitLord.com
TAPS returns to the lighthouse in St. Augustine, Florida. This was the site of some of the best evidence that TAPS has ever recorded, and this time, armed with new technology and new team members, they hope to get even more.

http://www.tv.com/ghost-hunters/return-to-st.-augustine-lighthouse/episode/1169082/summary.html?tag=ep_guide;summary


Format : AVI
Format/Info : Audio Video Interleave
File size : 349 MiB
Duration : 43mn 40s
Overall bit rate : 1 117 Kbps
Writing application : Lavf51.13.4
Writing library : VirtualDub build 32839/release

Video
ID : 0
Format : MPEG-4 Visual
Format profile : Advanced Simple@L5
Format settings, BVOP : Yes
Format settings, QPel : No
Format settings, GMC : No warppoints
Format settings, Matrix : Default (H.263)
Codec ID : XVID
Codec ID/Hint : XviD
Duration : 43mn 40s
Bit rate : 984 Kbps
Width : 640 pixels
Height : 480 pixels
Display aspect ratio : 4:3
Frame rate : 29.970 fps
Color space : YUV
Chroma subsampling : 4:2:0
Bit depth : 8 bits
Scan type : Progressive
Bits/(Pixel*Frame) : 0.107
Stream size : 307 MiB (88%)
Writing library : XviD 1.2.1 (UTC 2008-12-04)

Audio
ID : 1
Format : MPEG Audio
Format version : Version 1
Format profile : Layer 3
Mode : Joint stereo
Codec ID : 55
Codec ID/Hint : MP3
Duration : 43mn 39s
Bit rate mode : Variable
Bit rate : 119 Kbps
Minimum bit rate : 56.0 Kbps
Channel(s) : 2 channels
Sampling rate : 48.0 KHz
Stream size : 37.3 MiB (11%)
Alignment : Aligned on interleaves
Interleave, duration : 24 ms (0.72 video frame)
Interleave, preload duration : 294 ms
Writing library : LAME3.98r
Encoding settings : -m j -V 5 -q 0 -lowpass 16.5 --vbr-new -b 56


Ghost Hunters - S03E22 - Return to St. Augustine.avi 365.87 MB
Gathering some info...

Register and log in Isohunt and see no captcha anymore!

4000 symbols left
Hash eceefde47085b58262025e08a87d9fbb164c4a13

Related torrents for "Ghost Hunters - S03E22 - Return to St. Augustine.[tNe.XViD].avi"

Torrent search:

season 03 episode 22