imdb
rating

6.3
The Money Pit

The Money Pit (1986)

Comedy, Romance

Full description
quality   dvdrip h264 fullhd x264 hd bd

The Money Pit - 1986 ( DvdRip,Xvid)...Rojo

Size 734.552 MB   1 seeders     Added 2010-12-04 06:05:20

Stream torrent
Starting‥ You need BitLord! Get it from 1BitLord.com
8.3
To download or stream you need BitLord. Visit them at BitLord.com

torrentcover.jpg
plotw.jpg

Walter and Anna now need a place of their own. Through an unscrupulous real estate agent friend, Walter learns about a million dollar distress sale mansion. He and Anna meet the owner, Estelle (Maureen Stapleton), who claims she must sell the house quickly because her husband has been arrested by the Israelis, having been accused of being Adolf Hitler's pool boy. Her sob story and insistence of keeping the place in candlelight in order to save money “for the goddamn, bloodsucking lawyers” distracts Walter and enchants Anna, who finds it “romantic”. Walter and Anna decide to buy the house, but Anna insists on putting up half of the money needed for the repairs. She turns to Max for her half of the money by selling him back what she got in their divorce.

castbt.png
Actor Role
Tom Hanks Walter Fielding, Jr.
Shelley Long Anna Crowley Beissart / Anna Fielding
Alexander Godunov Max Beissart, the Maestro
Maureen Stapleton Estelle
Joe Mantegna Art Shirk
Philip Bosco Curly
Josh Mostel Jack Schnittman

youtubeb.jpg
www.youtube.com/watch?v=pmDX0tgONFs
imdbc.gif
http://www.imdb.com/title/tt0091541/
screensd.png
64409610.png

99086554.png

18515248.png

67947127.png

22700862.png

84626888.png

75020728.png

92092611.png

infora.png


General
Complete name : The Money Pit.avi
Format : AVI
Format/Info : Audio Video Interleave
File size : 700 MiB
Duration : 1h 27mn
Overall bit rate : 1 124 Kbps
Writing application : VirtualDubMod 1.5.4.1 (build 2178/release)
Writing library : VirtualDubMod build 2178/release

Video
ID : 0
Format : MPEG-4 Visual
Format profile : Advanced Simple@L5
Format settings, BVOP : Yes
Format settings, QPel : No
Format settings, GMC : No warppoints
Format settings, Matrix : Default (H.263)
Muxing mode : Packed bitstream
Codec ID : XVID
Codec ID/Hint : XviD
Duration : 1h 27mn
Bit rate : 1 000 Kbps
Width : 608 pixels
Height : 336 pixels
Display aspect ratio : 16:9
Frame rate : 25.000 fps
Color space : YUV
Chroma subsampling : 4:2:0
Bit depth : 8 bits
Scan type : Progressive
Bits/(Pixel*Frame) : 0.196
Stream size : 623 MiB (89%)
Writing library : XviD 1.2.1 (UTC 2008-12-04)

Audio
ID : 1
Format : MPEG Audio
Format version : Version 1
Format profile : Layer 3
Mode : Joint stereo
Mode extension : MS Stereo
Codec ID : 55
Codec ID/Hint : MP3
Duration : 1h 27mn
Bit rate mode : Variable
Bit rate : 111 Kbps
Nominal bit rate : 128 Kbps
Channel(s) : 2 channels
Sampling rate : 48.0 KHz
Stream size : 69.1 MiB (10%)
Alignment : Aligned on interleaves
Interleave, duration : 24 ms (0.60 video frame)
Interleave, preload duration : 166 ms
Writing library : LAME3.98r
Encoding settings : -m j -V 4 -q 2 -lowpass 17 --abr 128
Language : English

downtt.gif
rojo13.gif


The Money Pit - 1986..( DvdRip,Xvid)/cd.jpg 196.889 KB
The Money Pit - 1986..( DvdRip,Xvid)/front cover.jpg 385.844 KB
The Money Pit - 1986..( DvdRip,Xvid)/info.txt 2.525 KB
Gathering some info...

Register and log in Isohunt and see no captcha anymore!

4000 symbols left
Hash 9d2e66c4bb847aabe93e6d9db16ea45407184322

Related torrents for "The Money Pit - 1986 ( DvdRip,Xvid)...Rojo"

Torrent search:

dvdrip 1986