Sure Looks Good 2010 DVDRip Xvid LKRG

Size 795.394 MB   0 seeders     Added 2010-12-04 11:13:59

Stream torrent
Starting‥ You need BitLord! Get it from 1BitLord.com
To download or stream you need BitLord. Visit them at BitLord.com


Format;Avi

File Size:768mb

Video: ID : 0
Format : MPEG-4 Visual
Format profile : Advanced Simple@L5
Format settings, BVOP : Yes
Format settings, QPel : No
Format settings, GMC : No warppoints
Format settings, Matrix : Default (H.263)
Muxing mode : Packed bitstream
Codec ID : XVID
Codec ID/Hint : XviD
Duration : 1h 27mn
Bit rate : 1 019 Kbps
Width : 680 pixels
Height : 382 pixels
Display aspect ratio : 16:9
Frame rate : 29.970 fps
Color space : YUV
Chroma subsampling : 4:2:0
Bit depth : 8 bits
Scan type : Progressive
Bits/(Pixel*Frame) : 0.131
Stream size : 640 MiB (83%)
Writing library : XviD 1.2.1 (UTC 2008-12-04)

Audio: ID : 1
Format : AC-3
Format/Info : Audio Coding 3
Mode extension : CM (complete main)
Codec ID : 2000
Duration : 1h 27mn
Bit rate mode : Constant
Bit rate : 192 Kbps
Channel(s) : 2 channels
Channel positions : Front: L R
Sampling rate : 48.0 KHz
Bit depth : 16 bits
Stream size : 121 MiB (16%)
Alignment : Aligned on interleaves
Interleave, duration : 33 ms (1.00 video frame)
Interleave, preload duration : 512 ms

Duration:1:27

Release Date:2010

Language:English

Plot: A romantic drama that takes an introspective look into each woman's life as they go through a series of events that will change them forever.

Cast: Kenya Banks ...
Sharon
Alyse Bronz Alyse Bronz ...
Dr. Rice
Darnell Coney Darnell Coney ...
Kendall
Lionel Anthony Cook Lionel Anthony Cook ...
Derrick
Skye Dennis Skye Dennis ...
Jason
Daira Guerra Daira Guerra ...
Tina







http://www.imdb.com/title/tt1434941/
Sure Looks Good 2010 DVDRip Xvid LKRG/slgLKRG.part36.rar 15 MB
Sure Looks Good 2010 DVDRip Xvid LKRG/slgLKRG.part35.rar 15 MB
Sure Looks Good 2010 DVDRip Xvid LKRG/slgLKRG.part37.rar 15 MB
Gathering some info...

Register and log in Isohunt and see no captcha anymore!

4000 symbols left
Hash d85e5ef55419c7e99570aba0ba9f83d0998f3600

Related torrents for "Sure Looks Good 2010 DVDRip Xvid LKRG"

Torrent search:

dvdrip 2010