imdb
rating

7.7
Ghost Adventures

Ghost Adventures (2008)

Documentary, Mystery, Reality

Full description

Ghost Adventures - S04E12 - Old Fort Erie.[tNe.XViD].avi

Size 366.439 MB   0 seeders     Added 2010-12-04 13:09:01

Stream torrent
Starting‥ You need BitLord! Get it from 1BitLord.com
To download or stream you need BitLord. Visit them at BitLord.com
Format : AVI
Format/Info : Audio Video Interleave
File size : 349 MiB
Duration : 42mn 3s
Overall bit rate : 1 162 Kbps
Writing application : VirtualDubMod 1.5.4.1 (build 2178/release)
Writing library : VirtualDub build 32839/release

Video
ID : 0
Format : MPEG-4 Visual
Format profile : Advanced Simple@L5
Format settings, BVOP : Yes
Format settings, QPel : No
Format settings, GMC : No warppoints
Format settings, Matrix : Default (H.263)
Codec ID : XVID
Codec ID/Hint : XviD
Duration : 42mn 3s
Bit rate : 1 022 Kbps
Width : 624 pixels
Height : 352 pixels
Display aspect ratio : 16:9
Frame rate : 29.970 fps
Color space : YUV
Chroma subsampling : 4:2:0
Bit depth : 8 bits
Scan type : Progressive
Bits/(Pixel*Frame) : 0.155
Stream size : 307 MiB (88%)
Writing library : XviD 1.2.1 (UTC 2008-12-04)

Audio
ID : 1
Format : MPEG Audio
Format version : Version 1
Format profile : Layer 3
Mode : Joint stereo
Mode extension : MS Stereo
Codec ID : 55
Codec ID/Hint : MP3
Duration : 42mn 3s
Bit rate mode : Constant
Bit rate : 128 Kbps
Channel(s) : 2 channels
Sampling rate : 48.0 KHz
Stream size : 38.5 MiB (11%)
Alignment : Aligned on interleaves
Interleave, duration : 33 ms (1.00 video frame)
Interleave, preload duration : 504 ms
Writing library : LAME3.98r
Encoding settings : -m j -V 4 -q 2 -lowpass 17 -b 128
Ghost Adventures - S04E12 - Old Fort Erie.[tNe.XViD].avi 366.439 MB
Gathering some info...

Register and log in Isohunt and see no captcha anymore!

4000 symbols left
Hash 3febc7ac092e4ae3e05fe3c2bc2a6777a8764ce6

Related torrents for "Ghost Adventures - S04E12 - Old Fort Erie.[tNe.XViD].avi"

Torrent search:

season 04 episode 12