imdb
rating

6.5
Faster

Faster (2010)

Action, Crime, Drama, Thriller

Full description
quality   screener h264 dvd cam dvdrip

" Faster~CAM.2010.JEKYLL ".feeltheforce.biz

Size 942.194 MB   0 seeders     Added 2010-12-04 19:18:47

Stream torrent
Starting‥ You need BitLord! Get it from BitLord.com
To download or stream you need BitLord. Visit them at BitLord.com
  

Complete name : Faster~CAM.2010.JEKYLL.avi

Format : AVI

Format/Info : Audio Video Interleave

File size : 899 MiB

Duration : 1h 33mn

Overall bit rate : 1 341 Kbps



Video

ID : 0

Format : MPEG-4 Visual

Format profile : Simple@L3

Format settings, BVOP : No

Format settings, QPel : No

Format settings, GMC : No warppoints

Format settings, Matrix : Default (H.263)

Codec ID : XVID

Codec ID/Hint : XviD

Duration : 1h 33mn

Bit rate : 1 151 Kbps

Width : 640 pixels

Height : 480 pixels

Display aspect ratio : 4:3

Frame rate : 29.970 fps

Color space : YUV

Chroma subsampling : 4:2:0

Bit depth : 8 bits

Scan type : Progressive

Bits/(Pixel*Frame) : 0.125

Stream size : 771 MiB (86%)

Writing library : Magic0432

Audio

ID : 1

Format : MPEG Audio

Format version : Version 1

Format profile : Layer 3

Codec ID : 55

Codec ID/Hint : MP3

Duration : 1h 33mn

Bit rate mode : Constant

Bit rate : 128 Kbps

Channel(s) : 1 channel

Sampling rate : 44.1 KHz

Stream size : 85.7 MiB (10%)

Alignment : Aligned on interleaves

Writing library : LAME3.97�ª1 e1�¼`2����2

  

 
 This image has been resized. Click the image to view the full image. The original image is sized: 706 x 576
 
Faster~CAM.2010.JEKYLL.avi 942.194 MB
Gathering some info...

Register and log in Isohunt and see no captcha anymore!

4000 symbols left
Hash 0C6286476177476CCA804699A3180132E6EDCBF5

Related torrents for "" Faster~CAM.2010.JEKYLL ".feeltheforce.biz"

Torrent search:

cam 2010