imdb
rating

8.8
South Park

South Park (1997)

Comedy, Animation

Full description

" South Park - The Superheroes Movie Fan Edit HDTVRip Xvid LKRG ".feeltheforce.biz

Size 739.003 MB   0 seeders     Added 2010-12-04 19:29:11

Stream torrent
Starting‥ You need BitLord! Get it from BitLord.com
To download or stream you need BitLord. Visit them at BitLord.com
  

Video: ID: 0

Format: MPEG-4 Visual

Format profile: Advanced Simple@L5

Format settings, BVOP: Yes

Format settings, QPel: No

Format settings, GMC: No warppoints

Format settings, Matrix: Default (H.263)

Muxing mode: Packed bitstream

Codec ID: XVID

Codec ID/Hint: XviD

Duration: 1h 45mn

Bit rate: 898 Kbps

Width: 700 pixels

Height: 420 pixels

Display aspect ratio: 1.667

Frame rate: 29.970 fps

Color space: YUV

Chroma subsampling: 4:2:0

Bit depth: 8 bits

Scan type: Progressive

Bits/(Pixel*Frame): 0.091

Stream size: 600 MiB (85%)

Writing library: XviD 1.2.1 (UTC 2008-12-04)

Audio: ID: 1

Format: MPEG Audio

Format version: Version 1

Format profile: Layer 3

Mode: Joint stereo

Mode extension: MS Stereo

Codec ID: 55

Codec ID/Hint: MP3

Duration: 1h 45mn

Bit rate mode: Constant

Bit rate: 128 Kbps

Channel(s): 2 channels

Sampling rate: 48.0 KHz

Stream size: 96.2 MiB (14%)

Alignment: Split accross interleaves

Interleave, duration: 33 ms (1.00 video frame)

Interleave, preload duration: 500 ms
LKRGNFO.nfo 8.909 KB
cover.jpg 164.042 KB
sptshmLKRG.avi 738.83 MB
Gathering some info...

Register and log in Isohunt and see no captcha anymore!

4000 symbols left
Hash 085FF0A2B876DF1610FF763812DA2575E6D2F84B

Related torrents for "" South Park - The Superheroes Movie Fan Edit HDTVRip Xvid LKRG ".feeltheforce.biz"

Torrent search:

hdtv