imdb
rating

7.5
Guzaarish

Guzaarish (2010)

Drama, Romance

Full description
quality   x264 cam screener dvdrip hd bd

Guzaarish 2010 1CD PDVDRip{kingstyle}xRG

Size 741.797 MB   0 seeders     Added 2010-12-05 03:20:13

Stream torrent
Starting‥ You need BitLord! Get it from 1BitLord.com
10
To download or stream you need BitLord. Visit them at BitLord.com
General
Format : AVI
Format/Info : Audio Video Interleave
Format profile : OpenDML
File size : 698 MiB
Duration : 2h 0mn
Overall bit rate : 812 Kbps
Writing application : AVI-Mux GUI 1.17.7, Aug 8 2006 20:59:17

Video
ID : 0
Format : MPEG-4 Visual
Format profile : Advanced Simple@L5
Format settings, BVOP : Yes
Format settings, QPel : No
Format settings, GMC : No warppoints
Format settings, Matrix : Default (H.263)
Codec ID : XVID
Codec ID/Hint : XviD
Duration : 2h 0mn
Bit rate : 681 Kbps
Width : 624 pixels
Height : 272 pixels
Display aspect ratio : 2.25:1
Frame rate : 23.976 fps
Color space : YUV
Chroma subsampling : 4:2:0
Bit depth : 8 bits
Scan type : Progressive
Bits/(Pixel*Frame) : 0.167
Stream size : 585 MiB (84%)
Writing library : XviD 1.2.1 (UTC 2008-12-04)

Audio
ID : 1
Format : MPEG Audio
Format version : Version 1
Format profile : Layer 3
Mode : Joint stereo
Mode extension : MS Stereo
Codec ID : 55
Codec ID/Hint : MP3
Duration : 2h 0mn
Bit rate mode : Constant
Bit rate : 128 Kbps
Channel(s) : 2 channels
Sampling rate : 48.0 KHz
Stream size : 110 MiB (16%)
Alignment : Aligned on interleaves
Interleave, duration : 959 ms (23.00 video frames)
Interleave, preload duration : 216 ms
Title : VTS_02_1 T80 2_0ch 192Kbps DELAY 0ms
Writing library : LAME3.98r
Encoding settings : -m j -V 4 -q 2 -lowpass 17 -b 128
Guzaarish_2010_1CD_PDVDRip{kingstyle}xRG/Guzaarish_2010_1CD_PDVDRip{kingstyle}xRG.avi 731.448 MB
Guzaarish_2010_1CD_PDVDRip{kingstyle}xRG/ScreenShots.rar 5.114 MB
Guzaarish_2010_1CD_PDVDRip{kingstyle}xRG/ScreenShots/Guzaarish-Movie-Poster.jpg.jpg 23.418 KB
Gathering some info...

Register and log in Isohunt and see no captcha anymore!

4000 symbols left
Hash f8fad20dea50aee9404bb3875c0bb6a8418eee6b

Related torrents for "Guzaarish 2010 1CD PDVDRip{kingstyle}xRG"

Torrent search:

2010