Ghost Lab

Ghost Lab (2009)

Discovery/Science, Horror/Supernatural, Mystery

Full description

Ghost Lab - S02E06 - Eternal Home.[tNe.XViD].avi

Size 363.358 MB   0 seeders     Added 2010-12-05 07:05:48

Stream torrent
Starting‥ You need BitLord! Get it from BitLord.com
To download or stream you need BitLord. Visit them at BitLord.com
Format : AVI
Format/Info : Audio Video Interleave
File size : 347 MiB
Duration : 40mn 3s
Overall bit rate : 1 210 Kbps
Writing application : Lavf51.13.4
Writing library : VirtualDub build 32839/release

Video
ID : 0
Format : MPEG-4 Visual
Format profile : Advanced Simple@L5
Format settings, BVOP : Yes
Format settings, QPel : No
Format settings, GMC : No warppoints
Format settings, Matrix : Default (H.263)
Codec ID : XVID
Codec ID/Hint : XviD
Duration : 40mn 3s
Bit rate : 1 070 Kbps
Width : 624 pixels
Height : 352 pixels
Display aspect ratio : 16:9
Frame rate : 29.970 fps
Color space : YUV
Chroma subsampling : 4:2:0
Bit depth : 8 bits
Scan type : Progressive
Bits/(Pixel*Frame) : 0.163
Stream size : 307 MiB (88%)
Writing library : XviD 1.2.1 (UTC 2008-12-04)

Audio
ID : 1
Format : MPEG Audio
Format version : Version 1
Format profile : Layer 3
Mode : Joint stereo
Mode extension : MS Stereo
Codec ID : 55
Codec ID/Hint : MP3
Duration : 40mn 2s
Bit rate mode : Constant
Bit rate : 128 Kbps
Channel(s) : 2 channels
Sampling rate : 48.0 KHz
Stream size : 36.7 MiB (11%)
Alignment : Split accross interleaves
Interleave, duration : 33 ms (1.00 video frame)
Interleave, preload duration : 500 ms
Writing library : LAME3.98r
Encoding settings : -m j -V 4 -q 0 -lowpass 17 -b 128

Ghost Lab - S02E06 - Eternal Home.[tNe.XViD].avi 363.358 MB
Gathering some info...

Register and log in Isohunt and see no captcha anymore!

4000 symbols left
Hash 95c66edb61cf3b42b7e819a83c01e983bc67bbe4

Related torrents for "Ghost Lab - S02E06 - Eternal Home.[tNe.XViD].avi"

Torrent search:

season 02 episode 06