Jodi No 1 (2001) - Untouched - Dvd9 - NTSC [TDBB]

Size 6.725 GB   0 seeders     Added 2010-12-05 10:11:46

Stream torrent
Starting‚Ä• You need BitLord! Get it from 1BitLord.com
To download or stream you need BitLord. Visit them at BitLord.com
<center><span style="color: &quot;Red&quot;">~ | Team Desi Bad Boyz | ~ PRESENTS:</span>


WEHKW.gif


<span style="color: &quot;Blue&quot;">Jodi No 1 (2001) - Untouched - Dvd9 - NTSC </span>


ur3ew.jpg


bHHa1.jpg





General
Complete name : Jodi No 1 (2001) - Untouched - Dvd9 - NTSC
Format : MPEG-PS
File size : 1 024 MiB
Overall bit rate : 5 797 Kbps

Video
ID : 224 (0xE0)
Format : MPEG Video
Format version : Version 2
Format profile : Main@Main
Format settings, BVOP : Yes
Format settings, Matrix : Default
Format settings, GOP : M=3, N=15
Duration : 24mn 41s
Bit rate mode : Variable
Bit rate : 5 234 Kbps
Nominal bit rate : 6 000 Kbps
Width : 720 pixels
Height : 480 pixels
Display aspect ratio : 16:9
Frame rate : 29.970 fps
Standard : NTSC
Color space : YUV
Chroma subsampling : 4:2:0
Bit depth : 8 bits
Scan type : Interlaced
Scan order : Top Field First
Bits/(Pixel*Frame) : 0.505
Stream size : 924 MiB (90%)

Audio
ID : 128 (0x80)
Format : AC-3
Format/Info : Audio Coding 3
Mode extension : CM (complete main)
Duration : 3s 488ms
Bit rate mode : Constant
Bit rate : 448 Kbps
Channel(s) : 6 channels
Channel positions : Front: L C R, Side: L R, LFE
Sampling rate : 48.0 KHz
Bit depth : 16 bits
Stream size : 191 KiB (0%)




:




uMcIO.jpg


qAqks.png
6fRHT.png
45pCl.png
u8YK5.png
IKY5g.png
l37ut.png
1LPra.png


</center>
Jodi No 1 (2001) - Untouched - Dvd9 - NTSC [TDBB]/VIDEO_TS/VIDEO_TS.BUP 14.336 KB
Jodi No 1 (2001) - Untouched - Dvd9 - NTSC [TDBB]/VIDEO_TS/VIDEO_TS.IFO 14.336 KB
Jodi No 1 (2001) - Untouched - Dvd9 - NTSC [TDBB]/VIDEO_TS/VIDEO_TS.VOB 116.736 KB
Gathering some info...

Register and log in Isohunt and see no captcha anymore!

4000 symbols left
Hash 0f525749466322fd5d9b3dabf90fe6da6ca174fb