Rakht Charitra-I-2010-1CD-DVDRip-XviD-Esubs-[MysT]-RdY

Size 709.142 MB   0 seeders     Added 2010-12-05 15:05:00

Stream torrent
Starting‚Ä• You need BitLord! Get it from BitLord.com
To download or stream you need BitLord. Visit them at BitLord.com
Format : AVI
Format/Info : Audio Video Interleave
Format profile : OpenDML
File size : 676 MiB
Duration : 2h 3mn
Overall bit rate : 766 Kbps
Writing application : AVI-Mux GUI 1.17.8.3, Feb 16 201019:42:50

Video
ID : 0
Format : MPEG-4 Visual
Format profile : Advanced Simple@L5
Format settings, BVOP : Yes
Format settings, QPel : Yes
Format settings, GMC : No warppoints
Format settings, Matrix : Custom
Codec ID : XVID
Codec ID/Hint : XviD
Duration : 2h 3mn
Bit rate : 698 Kbps
Width : 592 pixels
Height : 256 pixels
Display aspect ratio : 2.35:1
Frame rate : 23.976 fps
Color space : YUV
Chroma subsampling : 4:2:0
Bit depth : 8 bits
Scan type : Progressive
Bits/(Pixel*Frame) : 0.192
Stream size : 617 MiB (91%)
Writing library : XviD 1.2.1 (UTC 2008-12-04)

Audio
ID : 1
Format : MPEG Audio
Format version : Version 2
Format profile : Layer 3
Mode : Joint stereo
Mode extension : MS Stereo
Codec ID : 55
Codec ID/Hint : MP3
Duration : 2h 3mn
Bit rate mode : Constant
Bit rate : 64.0 Kbps
Channel(s) : 2 channels
Sampling rate : 24.0 KHz
Stream size : 56.5 MiB (8%)
Alignment : Aligned on interleaves
Interleave, duration : 856 ms (20.52 video frames)
Interleave, preload duration : 216 ms
Title : VTS_01_1 T80 3_2ch 448Kbps DELAY 0ms
Writing library : LAME3.98r
Encoding settings : -m j -V 4 -q 2 -lowpass 11 -b 64

Ripper Myself

Credits To Team DDR For Providing the Source


sdds5.gif

vlcsnap-2010-12-04-21h50m43s62.png

vlcsnap-2010-12-04-21h53m28s227.png

vlcsnap-2010-12-04-21h56m20s156.png

vlcsnap-2010-12-04-21h57m53s58.png

vlcsnap-2010-12-04-21h58m04s165.png

vlcsnap-2010-12-04-21h58m24s119.png

vlcsnap-2010-12-04-21h58m48s92.png

vlcsnap-2010-12-04-22h01m01s137.png

vlcsnap-2010-12-04-22h01m53s145.png

vlcsnap-2010-12-04-22h02m57s36.png

Rakht Charitra-I-2010-1CD-DVDRip-XviD-Esubs-[MysT]-RdY/Rakht Charitra-I-2010-1CD-DVDRip-XviD-Esubs-[MysT]-RdY.avi 708.961 MB
Rakht Charitra-I-2010-1CD-DVDRip-XviD-Esubs-[MysT]-RdY/Rakht Charitra-I-2010-1CD-DVDRip-XviD-Esubs-[MysT]-RdY.srt 180.522 KB
Gathering some info...

Register and log in Isohunt and see no captcha anymore!

4000 symbols left
Hash 43b1cc8590c5d950bfdb2619c122292fd9478c89