imdb
rating

6.8
The A-Team

The A-Team (2010)

Action, Adventure, Comedy, Crime, Thriller

Full description
quality   x264 h264 dvdrip telesync cam

Naan Mahaan Alla (2010) ~ 1CD ~ x264 ~ Mp4 ~ Subs ~ Team IST(www.tollyzone.com)

Size 736.878 MB   0 seeders     Added 2010-12-05 19:11:17

Stream torrent
Starting‥ You need BitLord! Get it from BitLord.com
To download or stream you need BitLord. Visit them at BitLord.com
<center><span class="bold"><span style="font-size: 3px"><span style="color: Red">Naan Mahaan Alla (2010) ~ 1CD ~ x264 ~ Mp4 ~ Subs ~ Team IST</span></span></span>


<table width="90%" border="0" align="center" cellpadding="0" cellspacing="0"><tr><td class="quotecodeheader"> Code:</td> </tr><tr><td class="codebody">
<span style="color: Blue"><span class="bold">General</span></span>
Complete name : Naan Mahaan Alla (2010) ~ 1CD ~ x264 ~ Mp4 ~ Subs ~ Team IST.mp4
Format : MPEG-4
Format profile : Base Media
Codec ID : isom
File size : 703 MiB
Duration : 2h 11mn
Overall bit rate : 746 Kbps
Encoded date : UTC 2010-12-03 05:14:05
Tagged date : UTC 2010-12-03 05:14:05

<span style="color: Blue"><span class="bold">Video</span></span>
ID : 1
Format : AVC
Format/Info : Advanced Video Codec
Format profile : High@L2.1
Format settings, CABAC : Yes
Format settings, ReFrames : 4 frames
Codec ID : avc1
Codec ID/Info : Advanced Video Coding
Duration : 2h 11mn
Bit rate mode : Variable
Bit rate : 645 Kbps
Maximum bit rate : 2 439 Kbps
Width : 608 pixels
Height : 272 pixels
Display aspect ratio : 2.25:1
Frame rate mode : Constant
Frame rate : 23.976 fps
Resolution : 8 bits
Colorimetry : 4:2:0
Scan type : Progressive
Bits/(Pixel*Frame) : 0.163
Stream size : 607 MiB (86%)
Writing library : x264 core 98 r1649 c54c47d


<span style="color: Blue"><span class="bold">Audio</span></span>
ID : 2
Format : AAC
Format/Info : Advanced Audio Codec
Format version : Version 4
Format profile : LC
Format settings, SBR : No
Codec ID : 40
Duration : 2h 11mn
Bit rate mode : Variable
Bit rate : 96.0 Kbps
Maximum bit rate : 151 Kbps
Channel(s) : 2 channels
Channel positions : Front: L R
Sampling rate : 48.0 KHz
Stream size : 91.3 MiB (13%)
Encoded date : UTC 2010-12-03 05:14:46
Tagged date : UTC 2010-12-03 05:14:53



<span style="color: Blue"><span class="bold">Menu</span></span>
00:00:00.000 : Chapter 01
00:06:44.801 : Chapter 02
00:17:23.201 : Chapter 03
00:21:58.701 : Chapter 04
00:28:08.569 : Chapter 05
00:36:12.203 : Chapter 06
00:41:18.670 : Chapter 07
00:51:29.371 : Chapter 08
01:02:15.138 : Chapter 09
01:13:45.672 : Chapter 10
01:27:37.805 : Chapter 11
01:36:33.572 : Chapter 12
01:41:14.273 : Chapter 13
01:46:05.740 : Chapter 14
02:02:24.840 : Chapter 15
</td> </tr></table>



<a target=image
">

<a target=image
">

<a target=image
">

<a target=image
">

<a target=image
">

<a target=image
">

<a target=image
">

<a target=image
">

<a target=image
">

<a target=image
">

<span style="font-size: &quot;3&quot;px"><span style="color: &quot;seagreen&quot;"><span class="bold">Torrent Downloded From www.tollyzone.com

For Getting High Speed From 1gbps Download Torrent From Here http://www.tollyzone.com/showthread.php?1567-Naan-Mahaan-Alla-%282010%29-1CD-x264-Mp4-Subs-Team-IST&p=8105#post8105

So Dont Forget To Visit and For Free Register in Tollyzone.com For Latest And Quality Dvd rips,Sources,Mp3 And Otrhers
</span></span></span>

<a target=image
">

<span class="bold"><span style="font-size: 3px">Give Credits To <span style="color: Red">Team IST</span></span></span></center>

Naan Mahaan Alla (2010) ~ 1CD ~ x264 ~ Mp4 ~ Subs ~ Team IST/Naan Mahaan Alla (2010) ~ 1CD ~ x264 ~ Mp4 ~ Subs ~ Team IST.mp4 736.714 MB
Naan Mahaan Alla (2010) ~ 1CD ~ x264 ~ Mp4 ~ Subs ~ Team IST/Screen Shots/1 (7).jpg 15.656 KB
Naan Mahaan Alla (2010) ~ 1CD ~ x264 ~ Mp4 ~ Subs ~ Team IST/Screen Shots/1 (8).jpg 16.573 KB
Gathering some info...

Register and log in Isohunt and see no captcha anymore!

4000 symbols left
Hash fe2db72c63df79d629989f9374bb0345061417b9

Related torrents for "Naan Mahaan Alla (2010) ~ 1CD ~ x264 ~ Mp4 ~ Subs ~ Team IST(www.tollyzone.com)"

Torrent search:

subs x264 2010