Tropic

Tropic (1979)

Comedy

Full description

Fact or Faked Paranormal Files S01E11 Lunar Landing Hoax Tropical Intruder WEBRiP XviD-ATTLLN avi

Size 366.684 MB   2 seeders     Added 2010-12-05 19:08:55

Stream torrent
Starting‥ You need BitLord! Get it from BitLord.com
10
To download or stream you need BitLord. Visit them at BitLord.com
Format : AVI
Format/Info : Audio Video Interleave
File size : 350 MiB
Duration : 43mn 35s
Overall bit rate : 1 122 Kbps

Video
ID : 0
Format : MPEG-4 Visual
Format profile : Simple@L3
Format settings, BVOP : No
Format settings, QPel : No
Format settings, GMC : No warppoints
Format settings, Matrix : Default (H.263)
Codec ID : XVID
Codec ID/Hint : XviD
Duration : 43mn 35s
Bit rate : 980 Kbps
Width : 624 pixels
Height : 352 pixels
Display aspect ratio : 16:9
Frame rate : 29.970 fps
Color space : YUV
Chroma subsampling : 4:2:0
Bit depth : 8 bits
Scan type : Progressive
Bits/(Pixel*Frame) : 0.149
Stream size : 305 MiB (87%)
Writing library : XviD 1.1.2 (UTC 2006-11-01)

Audio
ID : 1
Format : MPEG Audio
Format version : Version 1
Format profile : Layer 3
Mode : Joint stereo
Mode extension : MS Stereo
Codec ID : 55
Codec ID/Hint : MP3
Duration : 43mn 35s
Bit rate mode : Constant
Bit rate : 128 Kbps
Channel(s) : 2 channels
Sampling rate : 48.0 KHz
Stream size : 39.9 MiB (11%)
Alignment : Split accross interleaves
Interleave, duration : 24 ms (0.72 video frame)
Interleave, preload duration : 205 ms
Writing library : LAME3.98

Fact.or.Faked.Paranormal.Files.S01E11.Lunar.Landing.Hoax.Tropical.Intruder.WEBRiP.XviD-ATTLLN.avi 366.684 MB
Gathering some info...

Register and log in Isohunt and see no captcha anymore!

4000 symbols left
Hash a4b4ed3a3ff3959b9b2527193ab268681beea891

Related torrents for "Fact or Faked Paranormal Files S01E11 Lunar Landing Hoax Tropical Intruder WEBRiP XviD-ATTLLN avi"

Torrent search:

season 01 episode 11 web-rip