imdb
rating

7.0
Legend of the Guardians: The Owls of Ga'Hoole

Legend of the Guardians: The Owls of Ga'Hoole (2010)

Adventure, Animation, Fantasy, Family

Full description

Legend of the Guardians 2010 DVDrip H264 BSBT

Size 872.544 MB   0 seeders     Added 2010-12-05 20:04:35

Stream torrent
Starting‥ You need BitLord! Get it from 1BitLord.com
To download or stream you need BitLord. Visit them at BitLord.com

2l88b3d.jpg

When a young owl is abducted by an evil Owl army, he must escape with newfound friends to seek out the legendary Guardians to stop the menace.

Cast

Emily Barclay ... Gylfie (voice)
Abbie Cornish ... Otulissa (voice)
Essie Davis ... Marella (voice)
Adrienne DeFaria ... Eglantine (voice)
Joel Edgerton ... Metalbeak (voice)
Deborra-Lee Furness ... Barran (voice)
Sacha Horler ... Strix Struma (voice)
Bill Hunter ... Bubo (voice)
Ryan Kwanten ... Kludd (voice)
Anthony LaPaglia ... Twilight (voice)
Miriam Margolyes ... Mrs. Plithiver (voice)
Helen Mirren ... Nyra (voice)
Sam Neill ... Allomere (voice)
Barry Otto ... Echidna (voice)
Richard Roxburgh ... Boron (voice)


Format : MPEG-4
Format profile : Base Media / Version 2
Codec ID : mp42
File size : 832 MiB
Duration : 1h 36mn
Overall bit rate : 1 201 Kbps
Encoded date : UTC 2010-12-05 01:50:46
Tagged date : UTC 2010-12-05 02:54:48
Writing application : HandBrake 0.9.4 2009112300

Video
ID : 1
Format : AVC
Format/Info : Advanced Video Codec
Format profile : High@L2.1
Format settings, CABAC : Yes
Format settings, ReFrames : 3 frames
Codec ID : avc1
Codec ID/Info : Advanced Video Coding
Duration : 1h 36mn
Bit rate mode : Variable
Bit rate : 1 036 Kbps
Width : 608 pixels
Height : 304 pixels
Display aspect ratio : 2.35:1
Frame rate mode : Variable
Frame rate : 23.964 fps
Minimum frame rate : 11.986 fps
Maximum frame rate : 29.970 fps
Resolution : 8 bits
Colorimetry : 4:2:0
Scan type : Progressive
Bits/(Pixel*Frame) : 0.234
Stream size : 718 MiB (86%)
Writing library : x264 core 79
Encoded date : UTC 2010-12-05 01:50:46
Tagged date : UTC 2010-12-05 02:54:48
Color primaries : BT.601-6 525, BT.1358 525, BT.1700 NTSC, SMPTE 170M
Transfer characteristics : BT.709-5, BT.1361
Matrix coefficients : BT.601-6 525, BT.1358 525, BT.1700 NTSC, SMPTE 170M

Audio
ID : 2
Format : AAC
Format/Info : Advanced Audio Codec
Format version : Version 4
Format profile : LC
Format settings, SBR : No
Codec ID : 40
Duration : 1h 36mn
Bit rate mode : Variable
Bit rate : 160 Kbps
Maximum bit rate : 210 Kbps
Channel(s) : 2 channels
Channel positions : Front: L R
Sampling rate : 48.0 KHz
Stream size : 111 MiB (13%)
Encoded date : UTC 2010-12-05 01:50:46
Tagged date : UTC 2010-12-05 02:54:48

Trackers

<table width="90%" border="0" align="center" cellpadding="0" cellspacing="0"><tr><td class="quotecodeheader"> Code:</td> </tr><tr><td class="codebody">http://genesis.1337x.org:1337/announce
http://fr33dom.h33t.com:3310/announce
http://tracker.publicbt.com:80/announce
http://torrent-download.to:5869/announce
http://tracker.openbittorrent.com:80/announce
http://nemesis.1337x.org/announce
http://exodus.1337x.org/announce</td> </tr></table>

Screens

122nbrl.png
2s6ouq1.png
juyh3q.png
2nsnlmg.png
LEGEND OF THE GUARDIANS DVDrip 2010 H264 BSBT/L.O.T.G.H264.STAR1.mp4 872.537 MB
LEGEND OF THE GUARDIANS DVDrip 2010 H264 BSBT/visit us at WWW.Blackstarbt.net.nfo 6.79 KB
Gathering some info...

Register and log in Isohunt and see no captcha anymore!

4000 symbols left
Hash 4ed6f5482bf5ee43360da79a39120717fa55504c

Related torrents for "Legend of the Guardians 2010 DVDrip H264 BSBT"

Torrent search:

dvdrip h264 2010