imdb
rating

7.6
The Town

The Town (2010)

Crime, Drama, Thriller

Full description
quality   cam screener hd dvdrip bd

The Town 2010 DVDrip H264 BSBT

Size 1.483 GB   0 seeders     Added 2010-12-05 20:04:17

Stream torrent
Starting‥ You need BitLord! Get it from BitLord.com
To download or stream you need BitLord. Visit them at BitLord.com

24obudz.jpg

As he plans his next job, a longtime thief tries to balance his feelings for a bank manager connected to one of his earlier heists, as well as the FBI agent looking to bring him and his crew down.

Cast

Ben Affleck ... Doug MacRay
Rebecca Hall ... Claire Keesey
Jon Hamm ... FBI S.A. Adam Frawley
Jeremy Renner ... James Coughlin
Blake Lively ... Krista Coughlin
Slaine ... Albert 'Gloansy' Magloan
Owen Burke ... Desmond Elden
Titus Welliver ... Dino Ciampa
Pete Postlethwaite ... Fergus 'Fergie' Colm
Chris Cooper ... Stephen MacRay
Dennis McLaughlin ... Rusty
Corena Chase ... Agent Quinlan
Brian Scannell ... Henry
Kerri Dunbar ... Henry's Girl
Tony V. ... Vericom Crew Chief

Format : MPEG-4
Format profile : Base Media / Version 2
Codec ID : mp42
File size : 1.38 GiB
Duration : 2h 4mn
Overall bit rate : 1 584 Kbps
Encoded date : UTC 2010-12-03 09:48:50
Tagged date : UTC 2010-12-03 11:02:36
Writing application : HandBrake 0.9.4 2009112300

Video
ID : 1
Format : AVC
Format/Info : Advanced Video Codec
Format profile : High@L2.1
Format settings, CABAC : Yes
Format settings, ReFrames : 3 frames
Codec ID : avc1
Codec ID/Info : Advanced Video Coding
Duration : 2h 4mn
Bit rate mode : Variable
Bit rate : 1 036 Kbps
Width : 640 pixels
Height : 272 pixels
Display aspect ratio : 2.35:1
Frame rate mode : Variable
Frame rate : 23.959 fps
Minimum frame rate : 11.987 fps
Maximum frame rate : 23.981 fps
Resolution : 8 bits
Colorimetry : 4:2:0
Scan type : Progressive
Bits/(Pixel*Frame) : 0.248
Stream size : 925 MiB (65%)
Writing library : x264 core 79
Encoded date : UTC 2010-12-03 09:48:50
Tagged date : UTC 2010-12-03 11:02:36
Color primaries : BT.601-6 525, BT.1358 525, BT.1700 NTSC, SMPTE 170M
Transfer characteristics : BT.709-5, BT.1361
Matrix coefficients : BT.601-6 525, BT.1358 525, BT.1700 NTSC, SMPTE 170M

Audio #1
ID : 2
Format : AAC
Format/Info : Advanced Audio Codec
Format version : Version 4
Format profile : LC
Format settings, SBR : No
Codec ID : 40
Duration : 2h 4mn
Bit rate mode : Variable
Bit rate : 160 Kbps
Maximum bit rate : 247 Kbps
Channel(s) : 2 channels
Channel positions : Front: L R
Sampling rate : 48.0 KHz
Stream size : 142 MiB (10%)
Encoded date : UTC 2010-12-03 09:48:50
Tagged date : UTC 2010-12-03 11:02:35

Audio #2
ID : 3
Format : AC-3
Format/Info : Audio Coding 3
Format_Settings_ModeExtension : CM (complete main)
Codec ID : ac-3
Duration : 2h 4mn
Bit rate mode : Constant
Bit rate : 384 Kbps
Channel(s) : 6 channels
Channel positions : Front: L C R, Side: L R, LFE
Sampling rate : 48.0 KHz
Resolution : 16 bits
Stream size : 343 MiB (24%)
Encoded date : UTC 2010-12-03 09:48:50
Tagged date : UTC 2010-12-03 11:02:35

Text
ID : 4
Format : Apple text
Codec ID : text
Duration : 2h 4mn
Bit rate : 0
Stream size : 14.0 Bytes (0%)
Encoded date : UTC 2010-12-03 09:48:50
Tagged date : UTC 2010-12-03 11:02:36

trackers

<table width="90%" border="0" align="center" cellpadding="0" cellspacing="0"><tr><td class="quotecodeheader"> Code:</td> </tr><tr><td class="codebody">http://genesis.1337x.org:1337/announce
http://fr33dom.h33t.com:3310/announce
http://tracker.publicbt.com:80/announce
http://torrent-download.to:5869/announce
http://tracker.openbittorrent.com:80/announce
http://nemesis.1337x.org/announce
http://exodus.1337x.org/announce</td> </tr></table>

Screens

2qmey9z.png
jzy2pu.png
29zaipz.png
wl989z.png
2cfbp7d.png
THE TOWN 2010 DVDrip H264 BSBT/star1.h264.m4v 1.483 GB
THE TOWN 2010 DVDrip H264 BSBT/visit us at WWW.Blackstarbt.net.nfo 6.79 KB
Gathering some info...

Register and log in Isohunt and see no captcha anymore!

4000 symbols left
Hash 551fd1a4ea92b58c0d178decef4505587d5e8186

Related torrents for "The Town 2010 DVDrip H264 BSBT"

Torrent search:

dvdrip h264 2010