imdb
rating

5.3
Ticking Clock

Ticking Clock (2011)

Action, Mystery, Science Fiction, Thriller

Full description
quality   screener h264 dvdrip x264 hd bd dvdr

Ticking Clock 2011 SCR H264 Feel-Free

Size 849.166 MB   0 seeders     Added 2010-12-06 02:07:30

Stream torrent
Starting‥ You need BitLord! Get it from BitLord.com
3.7
To download or stream you need BitLord. Visit them at BitLord.com

19489036.jpg


Genre: Action | Thriller
Language:English
IMDb:http://www.imdb.com/title/tt1519664/
Source:IMAGiNE Thx.

Format : MPEG-4
Format profile : Base Media
Codec ID : isom
File size : 808 MiB
Duration : 1h 41mn
Overall bit rate : 1 118 Kbps


Video
Codec ID : avc1
Codec ID/Info : Advanced Video Coding
Duration : 1h 41mn
Bit rate mode : Variable
Bit rate : 950 Kbps
Width : 720 pixels
Height : 304 pixels
Display aspect ratio : 2.35:1
Frame rate mode : Constant
Frame rate : 29.970 fps
Original frame rate : 29.000 fps
Color space : YUV
Chroma subsampling : 4:2:0
Bit depth : 8 bits
Scan type : Progressive
Bits/(Pixel*Frame) : 0.145
Stream size : 687 MiB (85%)
Language : English

Audio
ID : 1
Format : AAC
Format/Info : Advanced Audio Codec
Format version : Version 4
Format profile : LC
Codec ID : 40
Duration : 1h 41mn
Bit rate mode : Constant
Bit rate : 160 Kbps
Channel(s) : 2 channels
Channel positions : Front: L R
Sampling rate : 48.0 KHz
Stream size : 116 MiB (14%)
Language : English


Plot:
A reporter stumbles upon the journal of a murderer replete with plans to butcher specific people, and investigates on his own, finding that every trail leads to a 9-year-old orphan living in a group home

TRAILER:
www.youtube.com/watch?v=P1IPBXtUAZI&feature=player_embedded

759168vlcsnap-2010-12-05-19h57m33s75.png
584733vlcsnap-2010-12-05-19h57m39s144.pn
208889vlcsnap-2010-12-05-19h57m59s88.png
584876vlcsnap-2010-12-05-19h57m48s225.pn
573566vlcsnap-2010-12-05-19h57m54s35.png
901892vlcsnap-2010-12-05-19h58m33s167.pn


Ticking Clock 2011 SCR H264 Feel-Free/19489036.jpg 62.215 KB
Ticking Clock 2011 SCR H264 Feel-Free/Ticking Clock 2011 SCR H264 Feel-Free.mp4 847.571 MB
Ticking Clock 2011 SCR H264 Feel-Free/Ticking Clock 2011 SCR H264 Feel-Free.nfo 2.204 KB
Gathering some info...

Register and log in Isohunt and see no captcha anymore!

4000 symbols left
Hash 87141ad0be45fe33924e166a818f7bda39ad2b80

Related torrents for "Ticking Clock 2011 SCR H264 Feel-Free"

Torrent search:

h264 screener 2011