Khelen Hum Jee Jaan Se-MC-SCRrip-XviD-Esubs-[MysT]-RdY

Size 725.948 MB   0 seeders     Added 2010-12-06 08:05:33

Stream torrent
Starting‥ You need BitLord! Get it from BitLord.com
To download or stream you need BitLord. Visit them at BitLord.com
<center>66171vkv7o4rnkq.gif
26651616187460760462.png

Ripper Myself

Credits To Team IcTv For Providing the Source


<code>Format                           : AVI
Format/Info                      : Audio Video Interleave
Format profile                   : OpenDML
File size                        : 692 MiB
Duration                         : 2h 40mn
Overall bit rate                 : 602 Kbps
Writing application              : AVI-Mux GUI 1.17.8.3, Feb 16 201019:42:50

Video
ID                               : 0
Format                           : MPEG-4 Visual
Format profile                   : Advanced Simple@L5
Format settings, BVOP            : Yes
Format settings, QPel            : Yes
Format settings, GMC             : No warppoints
Format settings, Matrix          : Custom
Codec ID                         : XVID
Codec ID/Hint                    : XviD
Duration                         : 2h 40mn
Bit rate                         : 534 Kbps
Width                            : 544 pixels
Height                           : 288 pixels
Display aspect ratio             : 1.889
Frame rate                       : 23.976 fps
Color space                      : YUV
Chroma subsampling               : 4:2:0
Bit depth                        : 8 bits
Scan type                        : Progressive
Bits/(Pixel*Frame)               : 0.142
Stream size                      : 615 MiB (89%)
Writing library                  : XviD 1.2.1 (UTC 2008-12-04)

Audio
ID                               : 1
Format                           : MPEG Audio
Format version                   : Version 2
Format profile                   : Layer 3
Mode                             : Joint stereo
Mode extension                   : MS Stereo
Codec ID                         : 55
Codec ID/Hint                    : MP3
Duration                         : 2h 40mn
Bit rate mode                    : Constant
Bit rate                         : 64.0 Kbps
Channel(s)                       : 2 channels
Sampling rate                    : 24.0 KHz
Stream size                      : 73.6 MiB (11%)
Alignment                        : Aligned on interleaves
Interleave, duration             : 983 ms (23.56 video frames)
Interleave, preload duration     : 216 ms
Title                            : VTS_01_1 T80 2_0ch 192Kbps DELAY 0ms
Writing library                  : LAME3.98r
Encoding settings                : -m j -V 4 -q 2 -lowpass 11 -b 64</code>

sdds5.gif

vlcsnap-2010-12-05-15h41m54s157.png
vlcsnap-2010-12-05-15h43m40s194.png
vlcsnap-2010-12-05-15h44m27s151.png
vlcsnap-2010-12-05-15h48m36s79.png
vlcsnap-2010-12-05-15h47m06s202.png
vlcsnap-2010-12-05-15h46m26s54.png
vlcsnap-2010-12-05-15h45m51s220.png
vlcsnap-2010-12-05-15h45m07s42.png
vlcsnap-2010-12-05-15h49m12s171.png</center>
Khelen Hum Jee Jaan Se-MC-SCRrip-XviD-Esubs-[MysT]-RdY/Khelen Hum Jee Jaan Se-MC-SCRrip-XviD-Esubs-[MysT]-RdY.avi 725.92 MB
Khelen Hum Jee Jaan Se-MC-SCRrip-XviD-Esubs-[MysT]-RdY/Khelen Hum Jee Jaan Se-MC-SCRrip-XviD-Esubs-[MysT]-RdY.srt 27.474 KB
Gathering some info...

Register and log in Isohunt and see no captcha anymore!

4000 symbols left
Hash 05e03ab77ecc1ba1d07bfc42afb643f111cd3e47

Related torrents for "Khelen Hum Jee Jaan Se-MC-SCRrip-XviD-Esubs-[MysT]-RdY"