" All Good Things 2010 BDRip XVID AC3 HQ Hive-CM8 ".feeltheforce.biz

Size 1.673 GB   0 seeders     Added 2010-12-06 20:01:38

To download or stream you need BitLord. Visit them at BitLord.com
  

Thx Hive

CM8 Doing It Right The First Time 

Source: kinda "Bluray"
dont know exactly what it is, either its a Russian "bluray" or a 1080 plate cinema transfer or its one of this new Academy Blurays(Screener).
but i dont care what it is as long as its good and not in cinema already
dont bitch around about the tag.
Had to encode it 10 hours to maximize quality and stay up and get up early just to get it out early.
dl and enjoy

Video: 720x400 @bitrate 1800 2pass
Audio: English AC3 5.1 @384
Sample: yes included


http://www.imdb.com/title/tt1175709/


General
Complete name : All.Good.Things.2010.BDRip.XVID.AC3.HQ.Hive-CM8.avi
Format : AVI
Format/Info : Audio Video Interleave
File size : 1.54 GiB
Duration : 1h 40mn
Overall bit rate : 2 193 Kbps
Writing application : Nandub v1.0rc2
Writing library : Nandub build 1853/release

Video
ID : 0
Format : MPEG-4 Visual
Format profile : Advanced Simple@L5
Format settings, BVOP : Yes
Format settings, QPel : Yes
Format settings, GMC : No warppoints
Format settings, Matrix : Default (H.263)
Muxing mode : Packed bitstream
Codec ID : XVID
Codec ID/Hint : XviD
Duration : 1h 40mn
Bit rate : 1 800 Kbps
Width : 720 pixels
Height : 400 pixels
Display aspect ratio : 16:9
Frame rate : 23.976 fps
Color space : YUV
Chroma subsampling : 4:2:0
Bit depth : 8 bits
Scan type : Progressive
Bits/(Pixel*Frame) : 0.261
Stream size : 1.27 GiB (82%)
Writing library : XviD 1.2.1 (UTC 2008-12-04)

Audio
ID : 1
Format : AC-3
Format/Info : Audio Coding 3
Mode extension : CM (complete main)
Codec ID : 2000
Duration : 1h 40mn
Bit rate mode : Constant
Bit rate : 384 Kbps
Channel(s) : 6 channels
Channel positions : Front: L C R, Side: L R, LFE
Sampling rate : 48.0 KHz
Bit depth : 16 bits
Stream size : 277 MiB (18%)
Alignment : Split accross interleaves
Interleave, duration : 42 ms (1.00 video frame)
Interleave, preload duration : 500 ms

  

All Good Things is a love story and murder mystery based on the most notorious unsolved murder case in New York

  

Ryan Gosling - David Marks
Kirsten Dunst - Katie Marks
Frank Langella - Sanford Marks
Lily Rabe - Deborah Lehrman
Philip Baker Hall - Malvern Bump
Michael Esper - Daniel Marks 

  

 
 This image has been resized. Click the image to view the full image. The original image is sized: 720 x 400
 
 
 This image has been resized. Click the image to view the full image. The original image is sized: 720 x 400
 
 
 This image has been resized. Click the image to view the full image. The original image is sized: 720 x 400
 
All.Good.Things.2010.BDRip.XVID.AC3.HQ.Hive-CM8.nfo 4.168 KB
All.Good.Things.2010.BDRip.XVID.AC3.HQ.Hive-CM8.part001.rar 15 MB
All.Good.Things.2010.BDRip.XVID.AC3.HQ.Hive-CM8.part002.rar 15 MB
Gathering some info...

Register and log in Isohunt and see no captcha anymore!

4000 symbols left
Hash 8E6BB3E1BBB502D3B6F5E7EEA4561D69AF4EAFC5