Ramayana The Epic (2010)1CD - DVDsCR - XViD

Size 731.079 MB   0 seeders     Added 2010-12-07 14:11:14

Stream torrent
Starting‥ You need BitLord! Get it from BitLord.com
10
To download or stream you need BitLord. Visit them at BitLord.com
fe62b9fb.jpg

General
Complete name                    : Ramayana The Epic(2010)1CD - DVDsCR - XViD - Team MJY.avi
Format                           : AVI
Format/Info                      : Audio Video Interleave
File size                        : 697 MiB
Duration                         : 1h 37mn
Overall bit rate                 : 1 002 Kbps
Writing application              : VirtualDubMod 1.5.10.2 (build 2540/release)
Writing library                  : VirtualDubMod build 2540/release

Video
ID                               : 0
Format                           : MPEG-4 Visual
Format profile                   : Advanced Simple@L5
Format settings, BVOP            : Yes
Format settings, QPel            : No
Format settings, GMC             : No warppoints
Format settings, Matrix          : Custom
Codec ID                         : XVID
Codec ID/Hint                    : XviD
Duration                         : 1h 37mn
Bit rate                         : 897 Kbps
Width                            : 624 pixels
Height                           : 352 pixels
Display aspect ratio             : 16:9
Frame rate                       : 25.000 fps
Color space                      : YUV
Chroma subsampling               : 4:2:0
Bit depth                        : 8 bits
Scan type                        : Progressive
Bits/(Pixel*Frame)               : 0.163
Stream size                      : 624 MiB (89%)
Writing library                  : XviD 1.2.1 (UTC 2008-12-04)

Audio
ID                               : 1
Format                           : MPEG Audio
Format version                   : Version 1
Format profile                   : Layer 3
Mode                             : Joint stereo
Mode extension                   : MS Stereo
Codec ID                         : 55
Codec ID/Hint                    : MP3
Duration                         : 1h 37mn
Bit rate mode                    : Constant
Bit rate                         : 96.0 Kbps
Channel(s)                       : 2 channels
Sampling rate                    : 32.0 KHz
Stream size                      : 66.8 MiB (10%)
Alignment                        : Aligned on interleaves
Interleave, duration             : 40 ms (1.00 video frame)
Interleave, preload duration     : 504 ms

NNA15T.png
WSU6D6.png
FTT7ZM.png
HJ1E71.png
Ramayana The Epic(2010)1CD - DVDsCR - XViD - Team MJY/Ramayana The Epic(2010)1CD - DVDsCR - XViD - Team MJY.avi 731.079 MB
Ramayana The Epic(2010)1CD - DVDsCR - XViD - Team MJY/Torrent Tracked By Team MJY.txt 372 B
Gathering some info...

Register and log in Isohunt and see no captcha anymore!

4000 symbols left
Hash 00c2f443d94522f8a0f514c51076ec4ce60ee03b

Related torrents for "Ramayana The Epic (2010)1CD - DVDsCR - XViD"

Torrent search:

screener 2010