Special.Ops.2010 DVDRip Xvid AC3 LKRG[www.ilovetorrents.com]

Size 1.187 GB   0 seeders     Added 2010-12-07 16:20:51

Stream torrent
Starting‥ You need BitLord! Get it from BitLord.com
To download or stream you need BitLord. Visit them at BitLord.com
Video 
ID                           : 0 
Format                       : MPEG-4 Visual 
Format profile               : Simple@L3 
Format settings, BVOP            : No 
Format settings, QPel            : No 
Format settings, GMC         : No warppoints 
Format settings, Matrix          : Default (H.263) 
Codec ID                     : XVID 
Codec ID/Hint                    : XviD 
Duration                     : 1h 35mn 
Bit rate                     : 1 220 Kbps 
Width                            : 720 pixels 
Height                       : 400 pixels 
Display aspect ratio         : 16:9 
Frame rate                   : 29.970 fps 
Color space                      : YUV 
Chroma subsampling           : 4:2:0 
Bit depth                        : 8 bits 
Scan type                        : Progressive 
Bits/(Pixel*Frame)           : 0.141 
Stream size                      : 830 MiB (73%) 
Writing library                  : XviD 1.2.1 (UTC 2008-12-04) 

Audio 
ID                           : 1 
Format                       : AC-3 
Format/Info                      : Audio Coding 3 
Mode extension               : CM (complete main) 
Codec ID                     : 2000 
Duration                     : 1h 35mn 
Bit rate mode                    : Constant 
Bit rate                     : 448 Kbps 
Channel(s)                   : 6 channels 
Channel positions                : Front: L C R, Side: L R, LFE 
Sampling rate                    : 48.0 KHz 
Bit depth                        : 16 bits 
Stream size                      : 305 MiB (27%) 
Alignment                        : Aligned on interleaves 
Interleave, duration         : 33 ms (1.00 video frame) 
Interleave, preload duration : 512 ms 

Hunted by terrorists and betrayed by the country he defends. A story about a true American patriot. 



http://www.imdb.com/title/tt1237373/ 
cover.jpg 173.666 KB
LKRGNFO.nfo 8.515 KB
soLKRG.part01.rar 15 MB
Gathering some info...

Register and log in Isohunt and see no captcha anymore!

4000 symbols left
Hash FEC4AF0E328635BA430920CFFC399B2903240CCC

Related torrents for "Special.Ops.2010 DVDRip Xvid AC3 LKRG[www.ilovetorrents.com]"

Torrent search:

dvdrip 2010