The Last Exorcism 2010 PPVRip-IFLIX[www.ilovetorrents.com]

Size 1.069 GB   0 seeders     Added 2010-12-07 16:26:30

To download or stream you need BitLord. Visit them at BitLord.com
The Last Exorcism 2010 PPVRip IFLIX 

http://www.imdb.com/title/tt1320244/ 


Video 
ID                             : 0 
Format                         : MPEG-4 Visual 
Format settings, BVOP            : Yes 
Format settings, QPel            : No 
Format settings, GMC           : No warppoints 
Format settings, Matrix          : Default (H.263) 
Codec ID                       : DX50 
Codec ID/Hint                    : DivX 5 
Duration                       : 1h 27mn 
Bit rate                       : 1 500 Kbps 
Width                            : 720 pixels 
Height                         : 480 pixels 
Display aspect ratio           : 4:3 
Frame rate                     : 29.970 fps 
Standard                       : NTSC 
Resolution                     : 24 bits 
Colorimetry                      : 4:2:0 
Scan type                        : Progressive 
Bits/(Pixel*Frame)             : 0.145 
Stream size                      : 936 MiB (91%) 
Writing library                  : DivX 2151n 

Audio 
ID                             : 1 
Format                         : MPEG Audio 
Format version                 : Version 1 
Format profile                 : Layer 3 
Codec ID                       : 55 
Codec ID/Hint                    : MP3 
Duration                       : 1h 27mn 
Bit rate mode                    : Constant 
Bit rate                       : 128 Kbps 
Channel(s)                     : 2 channels 
Sampling rate                    : 48.0 KHz 
Resolution                     : 16 bits 
Stream size                      : 79.9 MiB (8%) 
Alignment                        : Aligned on interleaves 
Interleave, duration           : 33 ms (1.00 video frame) 


Rar(s) 71x15MB 
Sample/Sample.avi 8.94 MB
Sample/Sample.sfv 156 B
The.Last.Exorcism.2010.PPVRip-IFLIX.nfo 2.07 KB
Gathering some info...

Register and log in Isohunt and see no captcha anymore!

4000 symbols left
Hash C3915D7CC206C21513D6C08012BFFE67E8711B3F