Dinner For Schmucks 2010 PPVRiP-7SPEED[www.ilovetorrents.com]

Size 739.787 MB   0 seeders     Added 2010-12-07 16:46:18

To download or stream you need BitLord. Visit them at BitLord.com
Genre : Comedy 

Tagline : Takes One To Know One. 

Plot : Tim (Rudd) is a rising executive who "succeeds" in finding the perfect guest, IRS employee Barry (Carell), for his boss's monthly event, a so-called "dinner for idiots," which offers certain advantages to the exec who shows up with the biggest buffoon. 

Infomation 
Video 
ID : 0 
Format : MPEG-4 Visual 
Format settings, BVOP : Yes 
Format settings, QPel : No 
Format settings, GMC : No warppoints 
Format settings, Matrix : Default (H.263) 
Codec ID : DX50 
Codec ID/Hint : DivX 5 
Duration : 1h 53mn 
Bit rate : 724 Kbps 
Width : 720 pixels 
Height : 480 pixels 
Display aspect ratio : 4:3 
Frame rate : 29.970 fps 
Standard : NTSC 
Color space : YUV 
Chroma subsampling : 4:2:0 
Bit depth : 8 bits 
Scan type : Progressive 
Bits/(Pixel*Frame) : 0.070 
Stream size : 587 MiB (84%) 
Writing library : DivX 2151n 

Audio 
ID : 1 
Format : MPEG Audio 
Format version : Version 1 
Format profile : Layer 3 
Codec ID : 55 
Codec ID/Hint : MP3 
Duration : 1h 53mn 
Bit rate mode : Constant 
Bit rate : 128 Kbps 
Channel(s) : 2 channels 
Sampling rate : 48.0 KHz 
Stream size : 104 MiB (15%) 
Alignment : Aligned on interleaves 
Interleave, duration : 33 ms (1.00 video frame) 

Thanks to IFLIX for the source 

http://www.imdb.com/title/tt0427152/
Dinner.7Speed.part01.rar 15 MB
Dinner.7Speed.part02.rar 15 MB
Dinner.7Speed.part03.rar 15 MB
Gathering some info...

Register and log in Isohunt and see no captcha anymore!

4000 symbols left
Hash B39ABD0449B5CBAE7A9804A77FF077800F389F0C