Harry.Potter.a.t.d.Hallows.2010.TS.XViD.AC3.HQ.Hive-CM8[www.ilovetorrents.com]

Size 2.009 GB   0 seeders     Added 2010-12-07 16:48:53

Stream torrent
Starting‚Ä• You need BitLord! Get it from BitLord.com
To download or stream you need BitLord. Visit them at BitLord.com
VideoSource: German 720P PFD mkv 
thx pfd 
AudioSource: Imagines Line 
thx imagine 

Video: 720x300 @bitrate 1800 2pass 
Audio: AC3 2.0 Stereo 
Sample: yes included 

VideoEncode: added brightness,gamma,sharpness,corrected rgb colours to give 
it more live and added chroma. not too much brightness just that black is black 
on fullscreen and not grey. 
the logic mod16 resolution is 720x304, but the faces look a bit eggheaded in this 
resolution same on the 720p mkv. 
thats why i decided to make it 720x300 
looks a bit better this way. 

AudioEncode: 
First i had to clean the audiotrack. had background noise, some hiss and hum. 
Well normally imagines audio is well synced but by zapping trough i noticed a 
couple of oose scenes starting from -300 up to +500ms. 
Which results in effects or words coming to early or too late. 
And i am not talking about dark scenes. 
All the light scenes have sync issues which is very noticable, especially 
when they are within one sentence. 
So it took me 2 hours and 21 cuts to make it sync throughout the movie. 
all major effects and words should be nearly lipsync now. 
enjoy 




General 
Complete name                    : Harry.Potter.a.t.d.Hallows.2010.TS.XViD.AC3.HQ.Hive-CM8.avi 
Format                       : AVI 
Format/Info                      : Audio Video Interleave 
File size                        : 1.87 GiB 
Duration                     : 2h 9mn 
Overall bit rate             : 2 067 Kbps 
Writing application              : Nandub v1.0rc2 
Writing library                  : Nandub build 1853/release 

Video 
ID                           : 0 
Format                       : MPEG-4 Visual 
Format profile               : Advanced Simple@L5 
Format settings, BVOP            : Yes 
Format settings, QPel            : Yes 
Format settings, GMC         : No warppoints 
Format settings, Matrix          : Default (H.263) 
Muxing mode                      : Packed bitstream 
Codec ID                     : XVID 
Codec ID/Hint                    : XviD 
Duration                     : 2h 9mn 
Bit rate                     : 1 801 Kbps 
Width                            : 720 pixels 
Height                       : 300 pixels 
Display aspect ratio         : 2.40:1 
Frame rate                   : 25.000 fps 
Color space                      : YUV 
Chroma subsampling           : 4:2:0 
Bit depth                        : 8 bits 
Scan type                        : Progressive 
Bits/(Pixel*Frame)           : 0.334 
Stream size                      : 1.63 GiB (87%) 
Writing library                  : XviD 1.2.1 (UTC 2008-12-04) 

Audio 
ID                           : 1 
Format                       : AC-3 
Format/Info                      : Audio Coding 3 
Mode extension               : CM (complete main) 
Codec ID                     : 2000 
Duration                     : 2h 9mn 
Bit rate mode                    : Constant 
Bit rate                     : 256 Kbps 
Channel(s)                   : 2 channels 
Channel positions                : Front: L R 
Sampling rate                    : 48.0 KHz 
Bit depth                        : 16 bits 
Stream size                      : 237 MiB (12%) 
Alignment                        : Split accross interleaves 
Interleave, duration         : 40 ms (1.00 video frame) 
Interleave, preload duration : 500 ms 



Bill Nighy... Rufus Scrimgeour 
Emma Watson... Hermione Granger 
Richard Griffiths... Vernon Dursley 
Harry Melling... Dudley Dursley 
Daniel Radcliffe... Harry Potter 
Julie Walters... Molly Weasley 
Bonnie Wright... Ginny Weasley 
Rupert Grint... Ron Weasley 
Ian Kelly... Hermione's Dad 
Michelle Fairley... Hermione's Mum 
Fiona Shaw... Petunia Dursley 
Alan Rickman... Professor Severus Snape 
Carolyn Pickles... Charity Burbage 
Ralph Fiennes... Lord Voldemort 
Helena Bonham Carter... Bellatrix Lestrange 



Voldemort's power is growing stronger. He now has control over the Ministry 
of Magic and Hogwarts. Harry, Ron, and Hermione decide to finish Dumbledore's 
work and find the rest of the Horcruxes to defeat the Dark Lord. But little hope 
remains for the Trio, and the rest of the Wizarding World, so everything they do must go as planned.
Harry.Potter.a.t.d.Hallows.2010.TS.XViD.AC3.HQ.Hive-CM8.nfo 5.214 KB
Harry.Potter.a.t.d.Hallows.2010.TS.XViD.AC3.HQ.Hive-CM8.part001.rar 15 MB
Harry.Potter.a.t.d.Hallows.2010.TS.XViD.AC3.HQ.Hive-CM8.part002.rar 15 MB
Gathering some info...

Register and log in Isohunt and see no captcha anymore!

4000 symbols left
Hash A5DD85E00A88CCCA42F09DB558355D45F580B348