imdb
rating

7.7
Harry Potter and the Deathly Hallows: Part 1

Harry Potter and the Deathly Hallows: Part 1 (2010)

Adventure, Family, Fantasy

Full description

Harry.Potter.And.The.Deathly.Hallows.Part.1.TS.720p.XViD.-.IMAGiNE[www.ilovetorrents.com]

Size 2.629 GB   0 seeders     Added 2010-12-07 16:52:03

Stream torrent
Starting‥ You need BitLord! Get it from BitLord.com
To download or stream you need BitLord. Visit them at BitLord.com
Harry Potter And The Deathly Hallows Part 1 TS 720p  XViD - IMAGiNE 
******************************************************************************************************************** 

Ripper ...........: IMAGiNE                                        IMDB Rating.......:8.2/10                            
Video Codec.......: XVID                                       Release Date......:28/11/10 
Audio Codec.......:MP3                                         Theatre Date......:19/11/10 
Audio Bitrate.....:128                                              Runtime.......:2hr 09mins 
Subtitles.........:NIL                                               Language..........:ENGLISH 
Resolution...... 1280 x 544                                      IMDb URL.......... http://www.imdb.com/title/tt0926084/ 

DETAILS: 

Video 
ID                             : 0 
Format                         : MPEG-4 Visual 
Format profile                 : Advanced Simple@L5 
Format settings, BVOP            : Yes 
Format settings, QPel            : No 
Format settings, GMC           : No warppoints 
Format settings, Matrix          : Default (MPEG) 
Muxing mode                      : Packed bitstream 
Codec ID                       : XVID 
Codec ID/Hint                    : XviD 
Duration                       : 2h 9mn 
Bit rate                       : 2 549 Kbps 
Width                            : 1 280 pixels 
Height                         : 544 pixels 
Display aspect ratio           : 2.35 
Frame rate                     : 25.000 fps 
Resolution                     : 24 bits 
Colorimetry                      : 4:2:0 
Scan type                        : Progressive 
Bits/(Pixel*Frame)             : 0.146 
Stream size                      : 2.30 GiB (95%) 
Writing library                  : XviD 1.2.1 (UTC 2008-12-04) 

Audio 
ID                             : 1 
Format                         : MPEG Audio 
Format version                 : Version 1 
Format profile                 : Layer 3 
Codec ID                       : 55 
Codec ID/Hint                    : MP3 
Duration                       : 2h 9mn 
Bit rate mode                    : Constant 
Bit rate                       : 128 Kbps 
Channel(s)                     : 2 channels 
Sampling rate                    : 44.1 KHz 
Resolution                     : 16 bits 
Stream size                      : 118 MiB (5%) 
Alignment                        : Split accross interleaves 
Interleave, duration           : 40 ms (1.00 video frame) 
Interleave, preload duration   : 500 ms
Harry Potter And The Deathly Hallows Part 1 TS 720p XViD - IMAGiNE.NFO 5.016 KB
Harry Potter And The Deathly Hallows Part 1 TS 720p XViD - SAMPLE.avi 23.798 MB
Harry Potter And The Deathly Hallows Part 1 TS 720p XViD - SAMPLE.sfv 3.827 KB
Gathering some info...

Register and log in Isohunt and see no captcha anymore!

4000 symbols left
Hash 935F3580338570449A0ABEB340974A6810AD36DF

Related torrents for "Harry.Potter.And.The.Deathly.Hallows.Part.1.TS.720p.XViD.-.IMAGiNE[www.ilovetorrents.com]"

Torrent search:

telesync hd