Dinner.For.Schmucks.2010.PPVRip.XVID.AC3.HQ.Hive-CM8[www.ilovetorrents.com]

Size 1.338 GB   0 seeders     Added 2010-12-07 16:54:03

To download or stream you need BitLord. Visit them at BitLord.com
Video: 640x480 @bitrate 1300 2pass 
Audio: AC3 2.0 Stereo 
Sample: yes included 

http://www.imdb.com/title/tt0427152/ 


General 
Complete name                    : Dinner.For.Schmucks.2010.PPVRip.XVID.AC3.HQ.Hive-CM8.avi 
Format                         : AVI 
Format/Info                      : Audio Video Interleave 
File size                        : 1.24 GiB 
Duration                       : 1h 53mn 
Overall bit rate               : 1 566 Kbps 
Writing application              : Nandub v1.0rc2 
Writing library                  : Nandub build 1853/release 

Video 
ID                             : 0 
Format                         : MPEG-4 Visual 
Format profile                 : Advanced Simple@L5 
Format settings, BVOP            : Yes 
Format settings, QPel            : Yes 
Format settings, GMC           : No warppoints 
Format settings, Matrix          : Default (H.263) 
Muxing mode                      : Packed bitstream 
Codec ID                       : XVID 
Codec ID/Hint                    : XviD 
Duration                       : 1h 53mn 
Bit rate                       : 1 298 Kbps 
Width                            : 640 pixels 
Height                         : 480 pixels 
Display aspect ratio           : 4:3 
Frame rate                     : 29.970 fps 
Color space                      : YUV 
Chroma subsampling             : 4:2:0 
Bit depth                        : 8 bits 
Scan type                        : Progressive 
Bits/(Pixel*Frame)             : 0.141 
Stream size                      : 1.03 GiB (83%) 
Writing library                  : XviD 1.2.1 (UTC 2008-12-04) 

Audio 
ID                             : 1 
Format                         : AC-3 
Format/Info                      : Audio Coding 3 
Mode extension                 : CM (complete main) 
Codec ID                       : 2000 
Duration                       : 1h 53mn 
Bit rate mode                    : Constant 
Bit rate                       : 256 Kbps 
Channel(s)                     : 2 channels 
Channel positions                : Front: L R 
Sampling rate                    : 48.0 KHz 
Bit depth                        : 16 bits 
Stream size                      : 208 MiB (16%) 
Alignment                        : Split accross interleaves 
Interleave, duration           : 33 ms (1.00 video frame) 
Interleave, preload duration   : 500 ms 




Steve Carell ... Barry 
Paul Rudd ... Tim 
Zach Galifianakis ... Therman 
Jemaine Clement ... Kieran 
Stephanie Szostak ... Julie 
Lucy Punch ... Darla 
Bruce Greenwood ... Lance Fender 
David Walliams ... Mⁿeller 
Ron Livingston ... Caldwell 

Tim (Rudd) is a rising executive who "succeeds" in finding the perfect guest, 
IRS employee Barry (Carell), for his boss's monthly event, a so-called "dinner for idiots," 
which offers certain advantages to the exec who shows up with the biggest buffoon. 
Dinner.For.Schmucks.2010.PPVRip.XVID.AC3.HQ.Hive-CM8.nfo 4.003 KB
Dinner.For.Schmucks.2010.PPVRip.XVID.AC3.HQ.Hive-CM8.part001.rar 15 MB
Dinner.For.Schmucks.2010.PPVRip.XVID.AC3.HQ.Hive-CM8.part002.rar 15 MB
Gathering some info...

Register and log in Isohunt and see no captcha anymore!

4000 symbols left
Hash AC87C6A90FB8117DCEA2B6D9BED0D4E4B6DC82BB