imdb
rating

7.5
Boy

Boy (2010)

Comedy, Drama

Full description
quality   dvdrip dvdr screener

Soul Boy 2010 DVDSCR XViD - IMAGiNE[www.ilovetorrents.com]

Size 760.145 MB   0 seeders     Added 2010-12-07 16:59:17

Stream torrent
Starting‥ You need BitLord! Get it from 1BitLord.com
To download or stream you need BitLord. Visit them at BitLord.com
Soul Boy 2010 DVDSCR XViD - IMAGiNE 
******************************************************************************************************************** 

Ripper ...........: IMAGiNE                                        IMDB Rating.......:5.8/10                            
Video Codec.......: XVID                                       Release Date......:30/11/10 
Audio Codec.......:MP3                                         Theatre Date......:2010 
Audio Bitrate.....:128                                              Runtime.......:1h 20mn 
Subtitles.........:NIL                                               Language..........:ENGLISH 
Resolution...... 672 x 368                                      IMDb URL..........:http://www.imdb.com/title/tt1259227/ 


DETAILS: 

Video 
ID                             : 0 
Format                         : MPEG-4 Visual 
Format profile                 : Advanced Simple@L5 
Format settings, BVOP            : Yes 
Format settings, QPel            : No 
Format settings, GMC           : No warppoints 
Format settings, Matrix          : Default (H.263) 
Muxing mode                      : Packed bitstream 
Codec ID                       : XVID 
Codec ID/Hint                    : XviD 
Duration                       : 1h 20mn 
Bit rate                       : 1 096 Kbps 
Width                            : 672 pixels 
Height                         : 368 pixels 
Display aspect ratio           : 16/9 
Frame rate                     : 25.000 fps 
Resolution                     : 24 bits 
Colorimetry                      : 4:2:0 
Scan type                        : Progressive 
Bits/(Pixel*Frame)             : 0.177 
Stream size                      : 630 MiB (89%) 
Writing library                  : XviD 1.1.2 (UTC 2006-11-01) 

Audio 
ID                             : 1 
Format                         : MPEG Audio 
Format version                 : Version 1 
Format profile                 : Layer 3 
Codec ID                       : 55 
Codec ID/Hint                    : MP3 
Duration                       : 1h 20mn 
Bit rate mode                    : Constant 
Bit rate                       : 128 Kbps 
Channel(s)                     : 2 channels 
Sampling rate                    : 44.1 KHz 
Resolution                     : 16 bits 
Stream size                      : 73.6 MiB (10%) 
Alignment                        : Aligned on interleaves 
Interleave, duration           : 26 ms (0.65 video frame) 
Interleave, preload duration   : 522 ms 


SOURCES: 

VIDEO:Soul.Boy.2010.DVDSCR.XviD-TwIzZy 
AUDIO:Soul.Boy.2010.DVDSCR.XviD-TwIzZy 

NOTES: 

IMAGiNE bringing you another release..........Soul.Boy.2010. 

Not a bad source,but poor by dvdscreener standards,but that might be just the original ripper.....hard to tell 
without seeing original files :( 
Anyway .....cropped the black borders and the blacked out timer at the time and then had to resize it. 
We cleaned the video up and changed the rgb eq as they seemed off so .. 
Audio we just muxed straight off the source we used so thanks :) 

Enjoy folks 
Soul Boy 2010 DVDSCR XViD - IMAGiNE.NFO 4.985 KB
Soul Boy 2010 DVDSCR XViD - IMAGiNE.r00 15 MB
Soul Boy 2010 DVDSCR XViD - IMAGiNE.r01 15 MB
Gathering some info...

Register and log in Isohunt and see no captcha anymore!

4000 symbols left
Hash 7881B4E230964D5C4B12B6F8EE03896140210A7F

Related torrents for "Soul Boy 2010 DVDSCR XViD - IMAGiNE[www.ilovetorrents.com]"

Torrent search:

screener 2010