imdb
rating

6.3
Devil

Devil (2010)

Horror, Mystery, Thriller

Full description
quality   dvdrip cam dvdr dvd h264 bd

Devil 2010 PPVRip-IFLIX[www.ilovetorrents.com]

Size 1.013 GB   0 seeders     Added 2010-12-07 17:00:52

Stream torrent
Starting‥ You need BitLord! Get it from BitLord.com
To download or stream you need BitLord. Visit them at BitLord.com
Video 
ID : 0 
Format : MPEG-4 Visual 
Format settings, BVOP : Yes 
Format settings, QPel : No 
Format settings, GMC : No warppoints 
Format settings, Matrix : Default (H.263) 
Codec ID : DX50 
Codec ID/Hint : DivX 5 
Duration : 1h 20mn 
Bit rate : 1 500 Kbps 
Width : 720 pixels 
Height : 480 pixels 
Display aspect ratio : 4:3 
Frame rate : 29.970 fps 
Standard : NTSC 
Resolution : 24 bits 
Colorimetry : 4:2:0 
Scan type : Progressive 
Bits/(Pixel*Frame) : 0.145 
Stream size : 861 MiB (91%) 
Writing library : DivX 2151n 

Audio 
ID : 1 
Format : MPEG Audio 
Format version : Version 1 
Format profile : Layer 3 
Codec ID : 55 
Codec ID/Hint : MP3 
Duration : 1h 20mn 
Bit rate mode : Constant 
Bit rate : 128 Kbps 
Channel(s) : 2 channels 
Sampling rate : 48.0 KHz 
Resolution : 16 bits 
Stream size : 73.5 MiB (8%) 
Alignment : Aligned on interleaves 
Interleave, duration : 33 ms (1.00 video frame) 
Devil.2010.PPVRip-IFLIX.r00 15 MB
Devil.2010.PPVRip-IFLIX.r01 15 MB
Devil.2010.PPVRip-IFLIX.r02 15 MB
Gathering some info...

Register and log in Isohunt and see no captcha anymore!

4000 symbols left
Hash 036C21754C33A2F04CF7D90AC8D1CEC03D43DA0C

Related torrents for "Devil 2010 PPVRip-IFLIX[www.ilovetorrents.com]"

Torrent search:

ppvr 2010