Takers.2010.R5.XVID.AC3 5.1.HQ.Hive-CM8[www.ilovetorrents.com]

Size 1.706 GB   0 seeders     Added 2010-12-07 17:04:03

To download or stream you need BitLord. Visit them at BitLord.com
Takers 2010 R5 XVID AC3 5.1 HQ Hive-CM8 


[b]Thx Hive 

CM8 Doing It Right The First Time :D 

Sources 
Video: Russian DVD5 
Malchiki.naletchiki.2010.DVD-5 
and 
Audio: Takers.R5.XviD-TWiZTED 
thx Twizted 

Encode: 
added sharpness, brightness, chroma, denoise and corrected rgb colours. 
Cleaned the russian effect channels from voice and embedded twizted audio within. 
enjoy 

Video: 720x304 @bitrate 1800 2pass 
Audio: English AC3 5.1 @384 
Sample: yes included 
[/b] 


[url]http://www.imdb.com/title/tt1135084/[/url] 


General 
Complete name                    : Takers.2010.R5.XVID.AC3 5.1.HQ.Hive-CM8.avi 
Format                         : AVI 
Format/Info                      : Audio Video Interleave 
File size                        : 1.58 GiB 
Duration                       : 1h 42mn 
Overall bit rate               : 2 205 Kbps 
Writing application              : Nandub v1.0rc2 
Writing library                  : Nandub build 1853/release 

Video 
ID                             : 0 
Format                         : MPEG-4 Visual 
Format profile                 : Advanced Simple@L5 
Format settings, BVOP            : Yes 
Format settings, QPel            : Yes 
Format settings, GMC           : No warppoints 
Format settings, Matrix          : Default (H.263) 
Muxing mode                      : Packed bitstream 
Codec ID                       : XVID 
Codec ID/Hint                    : XviD 
Duration                       : 1h 42mn 
Bit rate                       : 1 812 Kbps 
Width                            : 720 pixels 
Height                         : 304 pixels 
Display aspect ratio           : 2.35:1 
Frame rate                     : 25.000 fps 
Color space                      : YUV 
Chroma subsampling             : 4:2:0 
Bit depth                        : 8 bits 
Scan type                        : Progressive 
Bits/(Pixel*Frame)             : 0.331 
Stream size                      : 1.30 GiB (82%) 
Writing library                  : XviD 1.2.1 (UTC 2008-12-04) 

Audio 
ID                             : 1 
Format                         : AC-3 
Format/Info                      : Audio Coding 3 
Mode extension                 : CM (complete main) 
Codec ID                       : 2000 
Duration                       : 1h 42mn 
Bit rate mode                    : Constant 
Bit rate                       : 384 Kbps 
Channel(s)                     : 6 channels 
Channel positions                : Front: L C R, Side: L R, LFE 
Sampling rate                    : 48.0 KHz 
Bit depth                        : 16 bits 
Stream size                      : 282 MiB (17%) 
Alignment                        : Split accross interleaves 
Interleave, duration           : 40 ms (1.00 video frame) 
Interleave, preload duration   : 500 ms 




Chris Brown ... Jesse Attica 
Hayden Christensen ... A.J. 
Matt Dillon ... Jack Welles 
Michael Ealy ... Jake Attica 
Idris Elba ... Gordon Cozier 
Steve Harris ... Lt. Carver 
T.I. ... Dalonte' Rivers / Ghost (as Tip 'T.I'. Harris) 
Jay Hernandez ... Eddie Hatcher 
Zoe Saldana ... Lilly 
Johnathon Schaech ... Scott 
Paul Walker ... John Rahway 
Marianne Jean-Baptiste ... Naomi Cozier 



A group of bank robbers find their multi-million 
dollar plan interrupted by a hard-boiled detective
sample.avi 5.11 MB
Takers.2010.R5.XVID.AC3 5.1.HQ.Hive-CM8.nfo 4.009 KB
Takers.2010.R5.XVID.AC3 5.1.HQ.Hive-CM8.part001.rar 15 MB
Gathering some info...

Register and log in Isohunt and see no captcha anymore!

4000 symbols left
Hash AF3BEF58C03C83ED67291D944EC2F0FF3DD24BA9