The Town DVDRiP XViD - IMAGiNE[www.ilovetorrents.com]

Size 1.462 GB   0 seeders     Added 2010-12-07 17:07:13

To download or stream you need BitLord. Visit them at BitLord.com
The Town DVDRiP XViD - IMAGiNE 


Ripper ...........:IMAGiNE                                 IMDB Rating.......:8.0/10 
Video Codec.......:XVID                                      Release Date......:12/02/10 
Audio Codec.......:MP3                                     Theatre Date......:08/17/10 
Audio Bitrate.....:192                                     Runtime...........:2h 04mn 
Subtitles.........:NIL                                     Language..........:ENGLISH 
Resolution........:720 x 304                               IMDb URL..........:http://www.imdb.com/title/tt0840361/ 

DETAILS: 
Video 
ID                             : 0 
Format                         : MPEG-4 Visual 
Format profile                 : Advanced Simple@L5 
Format settings, BVOP            : Yes 
Format settings, QPel            : No 
Format settings, GMC           : No warppoints 
Format settings, Matrix          : Default (H.263) 
Muxing mode                      : Packed bitstream 
Codec ID                       : XVID 
Codec ID/Hint                    : XviD 
Duration                       : 2h 4mn 
Bit rate                       : 1 335 Kbps 
Width                            : 720 pixels 
Height                         : 304 pixels 
Display aspect ratio           : 2.35:1 
Frame rate                     : 29.970 fps 
Color space                      : YUV 
Chroma subsampling             : 4:2:0 
Bit depth                        : 8 bits 
Scan type                        : Progressive 
Bits/(Pixel*Frame)             : 0.204 
Stream size                      : 1.16 GiB (87) 
Writing library                  : XviD 1.1.2 (UTC 2006-11-01) 

Audio 
ID                             : 1 
Format                         : MPEG Audio 
Format version                 : Version 1 
Format profile                 : Layer 3 
Codec ID                       : 55 
Codec ID/Hint                    : MP3 
Duration                       : 2h 4mn 
Bit rate mode                    : Constant 
Bit rate                       : 192 Kbps 
Channel(s)                     : 2 channels 
Sampling rate                    : 44.1 KHz 
Stream size                      : 171 MiB (12) 
Alignment                        : Split accross interleaves 
Interleave, duration           : 33 ms (1.00 video frame) 
Interleave, preload duration   : 500 ms
The Town DVDRiP XViD - IMAGiNE SAMPLE.avi 21.822 MB
The Town DVDRiP XViD - IMAGiNE.NFO 5.016 KB
The Town DVDRiP XViD - IMAGiNE.part001.rar 15 MB
Gathering some info...

Register and log in Isohunt and see no captcha anymore!

4000 symbols left
Hash A6B01E1EC1AF349996D5E51CB52706E6A6688D1C