imdb
rating

8.0
WWE Raw

WWE Raw (1993)

Action, Drama

Full description

WWE Raw 12 06 10 DSR XviD-XWT

Size 811.502 MB   1 seeders     Added 2010-12-07 21:05:06

Stream torrent
Starting‥ You need BitLord! Get it from 1BitLord.com
6.7
To download or stream you need BitLord. Visit them at BitLord.com
WWE-Monday-Night-RAW-Results1.jpg



Video
ID : 0
Format : MPEG-4 Visual
Format profile : Advanced Simple@L5
Format settings, BVOP : Yes
Format settings, QPel : No
Format settings, GMC : No warppoints
Format settings, Matrix : Default (H.263)
Codec ID : XVID
Codec ID/Hint : XviD
Duration : 1h 33mn
Bit rate : 1 023 Kbps
Width : 640 pixels
Height : 368 pixels
Display aspect ratio : 16:9
Frame rate : 25.000 fps
Color space : YUV
Chroma subsampling : 4:2:0
Bit depth : 8 bits
Scan type : Progressive
Compression mode : Lossy
Bits/(Pixel*Frame) : 0.174
Stream size : 681 MiB (88%)
Writing library : XviD 1.1.2 (UTC 2006-11-01)

Audio
ID : 1
Format : MPEG Audio
Format version : Version 1
Format profile : Layer 3
Mode : Joint stereo
Mode extension : MS Stereo
Codec ID : 55
Codec ID/Hint : MP3
Duration : 1h 33mn
Bit rate mode : Constant
Bit rate : 128 Kbps
Channel(s) : 2 channels
Sampling rate : 44.1 KHz
Compression mode : Lossy
Stream size : 85.2 MiB (11%)
Alignment : Aligned on interleaves
Interleave, duration : 26 ms (0.65 video frame)
Interleave, preload duration : 809 ms

ENJOY!
WWE.Raw.12.06.10.DSR.XviD-XWT/nfo.nfo 3.805 KB
WWE.Raw.12.06.10.DSR.XviD-XWT/WWE.Raw.12.06.10.DSR.XviD-XWT.avi 811.498 MB
Gathering some info...

Register and log in Isohunt and see no captcha anymore!

4000 symbols left
Hash 83a7ed4dfe8039d99f0bdb4a9631eea695bb4a77

Related torrents for "WWE Raw 12 06 10 DSR XviD-XWT"

Torrent search:

hdtv