A Rare & Shocking sex Scandal[~King Style~]

Size 59.286 MB   0 seeders     Added 2010-12-08 00:27:49

Stream torrent
Starting‚Ä• You need BitLord! Get it from 1BitLord.com
7.5
To download or stream you need BitLord. Visit them at BitLord.com
General
Format : AVI
Format/Info : Audio Video Interleave
File size : 56.5 MiB
Duration : 8mn 53s
Overall bit rate : 888 Kbps
Writing application : Lavf52.39.1

Video
Format : S-Mpeg 4 v3
Codec ID : MP43
Codec ID/Info : Microsoft MPEG-4 V3
Duration : 8mn 53s
Bit rate : 814 Kbps
Width : 400 pixels
Height : 300 pixels
Display aspect ratio : 4:3
Frame rate : 15.000 fps
Resolution : 24 bits
Bits/(Pixel*Frame) : 0.452
Stream size : 51.8 MiB (92%)

Audio
ID : 1
Format : MPEG Audio
Format version : Version 1
Format profile : Layer 3
Format_Settings_Mode : Joint stereo / MS Stereo
Codec ID : 55
Codec ID/Hint : MP3
Duration : 8mn 53s
Bit rate mode : Constant
Bit rate : 64.0 Kbps
Channel(s) : 2 channels
Sampling rate : 44.1 KHz
Resolution : 16 bits
Stream size : 4.07 MiB (7%)
Alignment : Aligned on interleaves
Interleave, duration : 26 ms (0.39 video frame)
Interleave, preload duration : 26 ms
Writing library : LAMEUUULAME3.96.1
rare scandal.avi 59.286 MB
Gathering some info...

Register and log in Isohunt and see no captcha anymore!

4000 symbols left
Hash 62f77b5aed3018dc053d1abf5209b4686a6dedf4