Despicable Me 2010 BluRay

Size 2.474 GB   2 seeders     Added 2010-12-08 01:11:49

10
To download or stream you need BitLord. Visit them at BitLord.com
  Despicable.Me.2010.BluRay.720p.x264.


The subtitles are not hardcoded

http://pt.hdcmct.com/signup.php

Format : Matroska
     File size : 2.30 GiB
     Duration : 1h 34mn
     Overall bit rate : 3 478 Kbps
     Encoded date : UTC 2010-12-05 14:57:03
     Writing application : mkvmerge v3.4.0 ('Rapunzel') ±àÒëÓÚ May 15 2010 09:38:20
     Writing library : libebml v0.8.0 + libmatroska v0.9.0
  Video #1
     ID : 1
     Format : AVC
     Format/Info : Advanced Video Codec
     Format profile : High@L4.1
     Format settings, CABAC : Yes
     Format settings, ReFrames : 5 frames
     Muxing mode : Container profile=Unknown@4.1
     Codec ID : V_MPEG4/ISO/AVC
     Duration : 1h 34mn
     Bit rate : 2 577 Kbps
     Nominal bit rate : 2 647 Kbps
     Width : 1 280 pixels
     Height : 696 pixels
     Display aspect ratio : 16:9
     Frame rate : 23.976 fps
     Resolution : 8 bits
     Colorimetry : 4:2:0
     Scan type : Progressive
     Bits/(Pixel*Frame) : 0.121
     Stream size : 1.70 GiB (74%)
     Writing library : x264 core 98 r1649 c54c47d
     Encoding settings : cabac=1 / ref=5 / deblock=1:-1:-1 / analyse=0x3:0x113 / me=umh / subme=6 / psy=1 / psy_rd=1.00:0.00 / mixed_ref=1 / me_range=16 / chroma_me=1 / trellis=2 / 8x8dct=1 / cqm=0 / deadzone=21,11 / fast_pskip=1 / chroma_qp_offset=-2 / threads=6 / sliced_threads=0 / nr=0 / decimate=1 / interlaced=0 / constrained_intra=0 / bframes=4 / b_pyramid=0 / b_adapt=1 / b_bias=0 / direct=3 / weightb=1 / weightp=2 / keyint=250 / keyint_min=25 / scenecut=40 / intra_refresh=0 / rc_lookahead=40 / rc=2pass / mbtree=1 / bitrate=2647 / ratetol=1.0 / qcomp=0.60 / qpmin=10 / qpmax=51 / qpstep=4 / cplxblur=20.0 / qblur=0.5 / ip_ratio=1.40 / aq=1:1.00
     Language : English
  Audio #2
     ID : 2
     Format : AC-3
     Format/Info : Audio Coding 3
     Codec ID : A_AC3
     Duration : 1h 34mn
     Bit rate mode : Constant
     Bit rate : 448 Kbps
     Channel(s) : 6 channels
     Channel positions : Front: L C R, Surround: L R, LFE
     Sampling rate : 48.0 KHz
     Stream size : 304 MiB (13%)

6.132 KB
Gathering some info...

Register and log in Isohunt and see no captcha anymore!

4000 symbols left
Hash 80e60305686211c7a6f54e2b14e3b7c38ff19408

Related torrents for "Despicable Me 2010 BluRay"

Torrent search:

2010