imdb
rating

8.5
The Walking Dead

The Walking Dead (2010)

Action & Adventure, Drama

Full description

The.Walking.Dead.S01E06.HDTV.XviD hDrefleX

Size 592.511 MB   0 seeders     Added 2010-12-08 05:10:27

Stream torrent
Starting‥ You need BitLord! Get it from 1BitLord.com
To download or stream you need BitLord. Visit them at BitLord.com
***General***
Format : AVI
Format/Info : Audio Video Interleave
Format profile : OpenDML
File size : 565 MiB
Duration : 43mn 53s
Overall bit rate : 1 800 Kbps
Writing application : AVI-Mux GUI 1.17.8.3, Feb 16 201019:42:50

***Video***
ID : 0
Format : MPEG-4 Visual
Format profile : Advanced Simple@L5
Format settings, BVOP : Yes
Format settings, QPel : Yes
Format settings, GMC : No warppoints
Format settings, Matrix : Default (H.263)
Codec ID : XVID
Codec ID/Hint : XviD
Duration : 43mn 53s
Bit rate : 1 346 Kbps
Width : 688 pixels
Height : 384 pixels
Display aspect ratio : 16:9
Frame rate : 25.000 fps
Color space : YUV
Chroma subsampling : 4:2:0
Bit depth : 8 bits
Scan type : Progressive
Bits/(Pixel*Frame) : 0.204
Stream size : 423 MiB (75%)
Writing library : XviD 1.2.1 (UTC 2008-12-04)

***Audio***
ID : 1
Format : AC-3
Format/Info : Audio Coding 3
Mode extension : CM (complete main)
Codec ID : 2000
Duration : 43mn 53s
Bit rate mode : Constant
Bit rate : 448 Kbps
Channel(s) : 2 channels
Channel positions : Front: L R
Sampling rate : 48.0 KHz
Bit depth : 16 bits
Stream size : 141 MiB (25%)
Alignment : Aligned on interleaves
Interleave, duration : 64 ms (1.60 video frames)
Interleave, preload duration : 192 ms
Title : The Walking Dead Ep.6
The.Walking.Dead.S01E06.HDTV.XviD hDrefleX/The.Walking.Dead.S01E06.HDTV.XviD hDrefleX.avi 592.507 MB
The.Walking.Dead.S01E06.HDTV.XviD hDrefleX/The.Walking.Dead.S01E06.HDTV.XviD hDrefleX.txt 4.454 KB
Gathering some info...

Register and log in Isohunt and see no captcha anymore!

4000 symbols left
Hash 3b9289aff13a1e6ea503364eb57fc90e5b544a08

Related torrents for "The.Walking.Dead.S01E06.HDTV.XviD hDrefleX"

Torrent search:

season 01 hdtv episode 06