imdb
rating

6.4
New

New (2004)

Comedy, Drama

Full description
quality   dvdrip dvdr

New (2004)1CD - DVDRIP - XviD - TaMiL

Size 733.55 MB   0 seeders     Added 2010-12-08 18:05:14

Stream torrent
Starting‥ You need BitLord! Get it from 1BitLord.com
10
To download or stream you need BitLord. Visit them at BitLord.com
new20041cddvdripxvidavi.jpg

<blockquote>
General
Complete name                    :New (2004)1CD - DVDRIP - XviD.avi
Format                           : AVI
Format/Info                      : Audio Video Interleave
Format profile                   : OpenDML
File size                        : 700 MiB
Duration                         : 5h 16mn
Overall bit rate                 : 309 Kbps
Writing application              : AVI-Mux GUI 1.17.7, Aug  8 2006  20:59:17

Video
ID                               : 0
Format                           : MPEG-4 Visual
Format profile                   : Advanced Simple@L5
Format settings, BVOP            : Yes
Format settings, QPel            : No
Format settings, GMC             : No warppoints
Format settings, Matrix          : Default (H.263)
Codec ID                         : XVID
Codec ID/Hint                    : XviD
Duration                         : 2h 38mn
Bit rate                         : 562 Kbps
Width                            : 640 pixels
Height                           : 272 pixels
Display aspect ratio             : 2.35:1
Frame rate                       : 23.976 fps
Color space                      : YUV
Chroma subsampling               : 4:2:0
Bit depth                        : 8 bits
Scan type                        : Progressive
Bits/(Pixel*Frame)               : 0.135
Stream size                      : 636 MiB (91%)
Writing library                  : XviD 1.2.1 (UTC 2008-12-04)

Audio
ID                               : 1
Format                           : MPEG Audio
Format version                   : Version 2
Format profile                   : Layer 3
Mode                             : Joint stereo
Mode extension                   : MS Stereo
Codec ID                         : 55
Codec ID/Hint                    : MP3
Duration                         : 5h 16mn
Bit rate mode                    : Variable
Bit rate                         : 48.0 Kbps
Channel(s)                       : 2 channels
Sampling rate                    : 22.05 KHz
Stream size                      : 53.8 MiB (8%)
Alignment                        : Aligned on interleaves
Interleave, duration             : 26 ms (0.63 video frame)
Interleave, preload duration     : 10501 ms
Writing library                  : LAME3.98r</blockquote>


new20041cddvdripxvidavi.jpg

new20041cddvdripxvidavi.jpg
new20041cddvdripxvidavi.jpg
new20041cddvdripxvidavi.jpg
new20041cddvdripxvidavi.jpg
New (2004)1CD - DVDRIP - XviD/New (2004)1CD - DVDRIP - XviD.avi 733.55 MB
New (2004)1CD - DVDRIP - XviD/Torrent Tracked By TEam MJY.txt 343 B
Gathering some info...

Register and log in Isohunt and see no captcha anymore!

4000 symbols left
Hash 0ab493fe2626eecae81129f5a406b93f78cc8068

Related torrents for "New (2004)1CD - DVDRIP - XviD - TaMiL"

Torrent search:

dvdrip 2004