Azhagiya Tamil Magan (2007)2CD - DVDrip - XviD - Tamil

Size 1.47 GB   0 seeders     Added 2010-12-08 18:04:54

Stream torrent
Starting‥ You need BitLord! Get it from BitLord.com
10
To download or stream you need BitLord. Visit them at BitLord.com
1866451236_883ba3f3d4_o.jpg

<blockquote>
General
Complete name                    : Azhagiya Tamil Magan(2007) - DVDrip - XviD
Format                           : AVI
Format/Info                      : Audio Video Interleave
Overall bit rate                 : 1 201 Kbps
Writing library                  : vi

Video
ID                               : 0
Format                           : MPEG-4 Visual
Format profile                   : Advanced Simple@L5
Format settings, BVOP            : Yes
Format settings, QPel            : No
Format settings, GMC             : No warppoints
Format settings, Matrix          : Default (H.263)
Muxing mode                      : Packed bitstream
Codec ID                         : XVID
Codec ID/Hint                    : XviD
Bit rate                         : 1 060 Kbps
Width                            : 688 pixels
Height                           : 272 pixels
Display aspect ratio             : 2.529
Frame rate                       : 23.976 fps
Color space                      : YUV
Chroma subsampling               : 4:2:0
Bit depth                        : 8 bits
Scan type                        : Progressive
Bits/(Pixel*Frame)               : 0.236
Stream size                      : 613 MiB (88%)
Writing library                  : XviD 1.2.0.dev47 (UTC 2006-11-01)

Audio
ID                               : 1
Format                           : MPEG Audio
Format version                   : Version 1
Format profile                   : Layer 3
Mode                             : Joint stereo
Mode extension                   : MS Stereo
Codec ID                         : 55
Codec ID/Hint                    : MP3
Duration                         : 1h 20mn
Bit rate mode                    : Constant
Bit rate                         : 128 Kbps
Channel(s)                       : 2 channels
Sampling rate                    : 48.0 KHz
Stream size                      : 74.0 MiB (11%)
Alignment                        : Aligned on interleaves
Interleave, duration             : 42 ms (1.00 video frame)
Writing library                  : LAME3.97 </blockquote>

azhagiyatamilmagan2007d.jpg
azhagiyatamilmagan2007d.jpg
azhagiyatamilmagan2007d.jpg
azhagiyatamilmagan2007d.jpg
azhagiyatamilmagan2007d.jpg
azhagiyatamilmagan2007d.jpg

Azhagiya Tamil Magan( 2007) - DVDrip - XviD - 1.45GB/Azhagiya Tamil Magan(2007) - DVDrip - XviD - CD 1.avi 727.443 MB
Azhagiya Tamil Magan( 2007) - DVDrip - XviD - 1.45GB/Azhagiya Tamil Magan(2007) - DVDrip - XviD - CD 2.avi 742.928 MB
Azhagiya Tamil Magan( 2007) - DVDrip - XviD - 1.45GB/Torrent Tracked By TEam MJY.txt 343 B
Gathering some info...

Register and log in Isohunt and see no captcha anymore!

4000 symbols left
Hash 76e1844822bb756f2e69d6e56f26f342e2da884e