big boss season 4 -08 dec 2010

Size 430.674 MB   0 seeders     Added 2010-12-09 13:06:35

Stream torrent
Starting‚Ä• You need BitLord! Get it from 1BitLord.com
To download or stream you need BitLord. Visit them at BitLord.com
Format : AVI Format/Info : Audio Video Interleave File size : 411 MiB Duration : 44mn 31s Overal bit rate : 900 Kbps Video Format : MPEG-4 Visual Format profile : Simple@L1 Format settings, BVOP : No Format settings, QPel : No Format settings, GMC : No warppoints Format settings, Matrix : Default Codec ID : XVID Codec ID/Hint : XviD Duration : 44mn 31s Bit rate : 900 Kbps Width : 512 pixels Height : 384 pixels Display aspect ratio : 4/3 Frame rate : 25.000 fps Resolution : 8 bits Colorimetry : 4:2:0 Scan type : Progressive Bits/(Pixel*Frame) : 0.234 Stream size : 367 MiB Writing library : Lavc51.54.0 Audio Format : MPEG Audio Format version : Version 1 Format profile : Layer 3 Codec ID : 55 Codec ID/Hint : MP3 Duration : 44mn 31s Bit rate mode : Constant Bit rate : 128 Kbps Channel(s) : 2 channels Sampling rate : 44.1 KHz Resolution : 16 bits Stream size : 40.8 MiB
Big Boss - Season 4 - 08th Dec 2010 - Ind - Bwtv.avi 430.674 MB
Gathering some info...

Register and log in Isohunt and see no captcha anymore!

4000 symbols left
Hash 6768944f2deb717bed5eda1d375cdc3d10171837