imdb
rating

6.8
The A-Team

The A-Team (2010)

Action, Adventure, Comedy, Crime, Thriller

Full description
quality   x264 h264 dvdrip telesync cam

Raktha Sarithiram 2 [2010]Tamil - TC - Re-Encored - XviD - 750MB - Team IST

Size 778.663 MB   0 seeders     Added 2010-12-09 23:23:01

Stream torrent
Starting‥ You need BitLord! Get it from BitLord.com
10
To download or stream you need BitLord. Visit them at BitLord.com

<span class="bold">Raktha Sarithiram 2 [2010]Tamil - TC - Re-Encored - XviD - 750MB - Team IST</span>


29936366.jpg


..:: INFO ::...



<span class="bold">General</span>
Complete name :Raktha Sarithiram 2 [2010]TC - Re-Encored - XviD - 750MB - Team IST.avi
Format : AVI
Format/Info : Audio Video Interleave
File size : 743 MiB
Duration : 2h 9mn
Overall bit rate : 801 Kbps
Writing application : VirtualDubMod 1.5.10.2 (build 2542/release)
Writing library : VirtualDubMod build 2542/release

<span class="bold">Video</span>
ID : 0
Format : MPEG-4 Visual
Format profile : Advanced Simple@L5
Format settings, BVOP : Yes
Format settings, QPel : No
Format settings, GMC : No warppoints
Format settings, Matrix : Custom
Muxing mode : Packed bitstream
Codec ID : XVID
Codec ID/Hint : XviD
Duration : 2h 9mn
Bit rate : 661 Kbps
Width : 720 pixels
Height : 304 pixels
Display aspect ratio : 2.35:1
Frame rate : 29.970 fps
Resolution : 8 bits
Colorimetry : 4:2:0
Scan type : Progressive
Bits/(Pixel*Frame) : 0.101
Stream size : 613 MiB (83%)


<span class="bold">Audio</span>
ID : 1
Format : MPEG Audio
Format version : Version 1
Format profile : Layer 3
Format_Settings_Mode : Joint stereo
Codec ID : 55
Codec ID/Hint : MP3
Duration : 2h 9mn
Bit rate mode : Constant
Bit rate : 128 Kbps
Channel(s) : 2 channels
Sampling rate : 48.0 KHz
Stream size : 119 MiB (16%)
Alignment : Split accross interleaves
Interleave, duration : 33 ms (1.00 video frame)
Interleave, preload duration : 500 ms
Writing library : LAME3.98r

<span class="bold">Thanks To Mrkay @ Team IST</span>



..:: SCREENSHOTS ::...

54326943.png


46373894.png


67338682.png


41760519.png


47494863.png


40259948.png


26350599.png


83271611.png


18253286.png


82670813.png


80812510.png


28709032.png[


Raktha Sarithiram 2 [2010]TC - Re-Encored - XviD - 750MB - Team IST/Raktha Sarithiram 2 [2010]TC - Re-Encored - XviD - 750MB - Team IST.avi 778.662 MB
Raktha Sarithiram 2 [2010]TC - Re-Encored - XviD - 750MB - Team IST/Team IST - IsaiThai.Com.txt 722 B
Gathering some info...

Register and log in Isohunt and see no captcha anymore!

4000 symbols left
Hash 8388bdc75446a3a5629b97a46146a079a2c6c93e

Related torrents for "Raktha Sarithiram 2 [2010]Tamil - TC - Re-Encored - XviD - 750MB - Team IST"

Torrent search:

2010