Pathani Sex Bomb Colg Teen in Car [~KingStyle~]xRG

Size 11.255 MB   0 seeders     Added 2010-12-10 00:20:49

Stream torrent
Starting‥ You need BitLord! Get it from BitLord.com
10
To download or stream you need BitLord. Visit them at BitLord.com

Video
Format                           : xvid
Codec ID                         : xvid
Duration                         : 59s 960ms
Bit rate                         : 1 273 Kbps
Width                            : 400 pixels
Height                           : 300 pixels
Display aspect ratio             : 4:3
Frame rate                       : 29.970 fps
Resolution                       : 24 bits
Bits/(Pixel*Frame)               : 0.354
Stream size                      : 9.10 MiB (94%)

Audio
ID                               : 1
Format                           : MPEG Audio
Format version                   : Version 2.5
Format profile                   : Layer 3
Codec ID                         : 55
Codec ID/Hint                    : MP3
Duration                         : 2mn 1s
Bit rate mode                    : Constant
Bit rate                         : 64.0 Kbps
Channel(s)                       : 1 channel
Sampling rate                    : 8 000 Hz
Resolution                       : 16 bits
Stream size                      : 476 KiB (5%)
Alignment                        : Aligned on interleaves
Interleave, duration             : 71 ms (2.12 video frames)
Writing library                  : LAME3.96.1

Pathani Sex Bomb Colg Teen in Car [~KingStyle~]xRG/Pathani Sex Bomb Colg Teen in Car [~KingStyle~]xRG.avi 10.106 MB
Pathani Sex Bomb Colg Teen in Car [~KingStyle~]xRG/1.jpg 1.15 MB
Gathering some info...

Register and log in Isohunt and see no captcha anymore!

4000 symbols left
Hash 1d19e3f0b4ae1946f3459895996aa3d2412d4d45