3 Doors Down - Loser [voldemort5]

Size 46.304 MB   0 seeders     Added 2010-12-10 22:24:11

Stream torrent
Starting‥ You need BitLord! Get it from 1BitLord.com
10
To download or stream you need BitLord. Visit them at BitLord.com

nmteamdotnetay0.jpg

3 Doors Down is an American rock band from Escatawpa, Mississippi, formed in 1996. The band consists of Brad Arnold(vocals), Matt Roberts (guitar/vocals), Todd Harrell (bass), Chris Henderson (guitar),and Greg Upchurch(drums/percussion/vocals).

folderxh7.jpg

The band rose to national fame with their first single, "Kryptonite", which charted in the top three on the Billboard Hot 100 chart. The band then signed onto Universal Records and released their debut album, The Better Life, in 2000. The album was the 11th-best-selling album of the year and was certified 6x platinum in the United States. Their second album, Away from the Sun, (2002) continued the band's success; it debuted at #8 on the Billboard 200 chart and went multi-platinum in the United States like its predecessor. The band followed it up by extensive touring for two years before releasing their third album, Seventeen Days, in 2005. The album debuted at #1 on the Billboard 200 chart and was certified platinum within its first month of release. Their fourth, self-titled album, 3 Doors Down, also debuted at #1 on the Billboard 200 chart. The band's fifth studio album, Time Of My Life,is due for release in early 2011.

thebetterlifeub7.jpg

The band often performs more than 300 concerts a year and has performed with other artists such as Lynyrd Skynyrd,Megadeth, Staind, Nickelback, Alter Bridge, Breaking Benjamin, Seether, Shinedown and Daughtry. Since the start of their career, 3 Doors Down has sold over 16 million albums worldwide.

3doorsdownloser.jpg

"Loser" is a song by American alternative rock band 3 Doors Down from their debut album The Better Life. The song spent 21 weeks at the No. 1 position on the Billboard U.S. Mainstream Rock chart, an all-time record for the chart.

<span style="font-size: 6px"><span style="color: yellowgreen"><span class="underline"><span class="italics"><span class="bold">Song meaning</span></span></span></span></span>

Lead singer Brad Arnold wrote "Loser" about a childhood friend who became addicted to cocaine.

<span style="font-size: 6px"><span style="color: red"><span class="underline"><span class="italics"><span class="bold">Members</span></span></span></span></span>

<span style="font-size: 6px"><span style="color: orangered"><span class="underline"><span class="italics"><span class="bold">Current members</span></span></span></span></span>

Brad Arnold — lead vocals (1996–present)
Matt Roberts — lead guitar, backing vocals (1996–present)
Chris Henderson — rhythm guitar (1996–present)
Todd Harrell — bass guitar (1996–present)
Greg Upchurch — drum (2005–present)

<span style="font-size: 6px"><span style="color: orangered"><span class="underline"><span class="italics"><span class="bold">Former members</span></span></span></span></span>

Daniel Adair — drums,backing vocals percussion (2002–2005)
Richard Liles — drums, percussion (1996–2000)

<span class="underline"><span class="italics"><span class="bold"><span style="color: orange">ScReEn ShOts</span></span></span></span>

3doorsdownloservoldemor.jpg

3doorsdownloservoldemor.jpg

3doorsdownloservoldemor.jpg

3doorsdownloservoldemor.jpg

3doorsdownloservoldemor.jpg

Do COmmeNT !!!!

voldemort5dracula.gif

cooltext437574446.png


<span style="font-size: 6px"><span class="underline"><span class="italics"><span class="bold"><span style="color: tomato">General</span></span></span></span></span>

Complete name: 3 doors down-loser.avi
Format : CDXA/MPEG-PS
File size : 44.2 MiB
Duration : 4mn 31s
Overall bit rate: 1 417 Kbps


<span style="font-size: 6px"><span class="underline"><span class="italics"><span class="bold"><span style="color: greenyellow">Video</span></span></span></span></span>

ID : 224 (0xE0)
Format : MPEG Video
Format version: Version 1
Format settings,BVOP: Yes
Format settings,Matrix: Default
Duration : 4mn 31s
Bit rate mode: Constant
Bit rate : 1 120 Kbps
Width : 352 pixels
Height : 288 pixels
Display aspect ratio: 4:3
Frame rate : 25.000 fps
Standard : PAL
Color space : YUV
Bit depth : 8 bits
Scan type : Progressive
Compression mode: Lossy
Bits/(Pixel*Frame): 0.442
Stream size : 36.3 MiB (82%)

<span style="font-size: 6px"><span class="underline"><span class="italics"><span class="bold"><span style="color: violet">Audio</span></span></span></span></span>

ID : 192 (0xC0)
Format : MPEG Audio
Format version: Version 1
Format profile: Layer 2
Duration : 4mn 21s
Bit rate mode: Constant
Bit rate : 224 Kbps
Channel(s) : 2 channels
Sampling rate: 44.1 KHz
Compression mode: Lossy
Video delay : 10ms
Stream size : 6.98 MiB (16%)


3 doors down-loser/3 doors down-loser[voldemort5].avi 46.304 MB
Gathering some info...

Register and log in Isohunt and see no captcha anymore!

4000 symbols left
Hash 2a998f3d69e3bc9c8ae6ac224ce5f5021d378546