Desi Bhabi and Cheating Wife 2in1[~King Style~]

Size 17.221 MB   0 seeders     Added 2010-12-11 02:23:43

Stream torrent
Starting‥ You need BitLord! Get it from 1BitLord.com
10
To download or stream you need BitLord. Visit them at BitLord.com
General
Format                           : MPEG-4
Format profile                   : Base Media
Codec ID                         : isom
File size                        : 11.8 MiB
Duration                         : 4mn 41s
Overall bit rate                 : 350 Kbps
Encoded date                     : UTC 2002-01-01 12:51:15
Tagged date                      : UTC 2002-01-01 12:51:15

Video
ID                               : 2
Format                           : AVC
Format/Info                      : Advanced Video Codec
Format profile                   : Baseline@L1.3
Format settings, CABAC           : No
Format settings, ReFrames        : 1 frame
Codec ID                         : avc1
Codec ID/Info                    : Advanced Video Coding
Duration                         : 4mn 41s
Bit rate mode                    : Variable
Bit rate                         : 258 Kbps
Width                            : 480 pixels
Height                           : 360 pixels
Display aspect ratio             : 4:3
Frame rate mode                  : Constant
Frame rate                       : 15.000 fps
Resolution                       : 24 bits
Colorimetry                      : 4:2:0
Scan type                        : Progressive
Bits/(Pixel*Frame)               : 0.099
Stream size                      : 8.65 MiB (74%)
Writing library                  : ?„¬çø;=
Language                         : English

Audio
ID                               : 1
Format                           : AAC
Format/Info                      : Advanced Audio Codec
Format version                   : Version 4
Format profile                   : LC
Format settings, SBR             : No
Codec ID                         : 40
Duration                         : 4mn 41s
Bit rate mode                    : Constant
Bit rate                         : 87.4 Kbps
Channel(s)                       : 2 channels
Channel positions                : L R
Sampling rate                    : 44.1 KHz
Resolution                       : 16 bits
Stream size                      : 2.93 MiB (25%)
Language                         : English

desi bhabi and Cheating Wife 2in1/Desi Bhabi Press N Milk/1.jpg 1.171 MB
desi bhabi and Cheating Wife 2in1/Desi Bhabi Press N Milk/Desi Bhabi Press N Milk.avi 2.926 MB
desi bhabi and Cheating Wife 2in1/Desi Hidden Cam Cheating Wife/1.jpg 799.953 KB
Gathering some info...

Register and log in Isohunt and see no captcha anymore!

4000 symbols left
Hash bf5d70a06eb2c93bb334b995a0dc7ec384ea9bfe