imdb
rating

4.3
Cats & Dogs: The Revenge of Kitty Galore

Cats & Dogs: The Revenge of Kitty Galore (2010)

Comedy, Family

Full description
quality   dvdrip telesync x264 hd bd

Cats and Dogs The Revenge of Kitty Galore 2010 Hindi BDrip vkkr

Size 883.367 MB   0 seeders     Added 2010-12-12 03:07:45

Stream torrent
Starting‥ You need BitLord! Get it from 1BitLord.com
10
To download or stream you need BitLord. Visit them at BitLord.com

General
Complete name : Cats and Dogs The Revenge of Kitty Galore 2010 Hindi BDrip by Arihant !!!Team TDT!!!.mkv
Format : Matroska
File size : 832 MiB
Duration : 1h 18mn
Overall bit rate : 1 474 Kbps

Writing library : libebml v0.7.9 + libmatroska v0.8.1

Video
ID : 1
Format : AVC
Format/Info : Advanced Video Codec
Format profile : High@L4.1
Format settings, CABAC : Yes
Format settings, ReFrames : 3 frames
Muxing mode : Container profile=Unknown@4.1
Codec ID : V_MPEG4/ISO/AVC
Duration : 1h 18mn
Bit rate : 1 317 Kbps
Nominal bit rate : 1 294 Kbps
Width : 720 pixels
Height : 400 pixels
Display aspect ratio : 16:9
Frame rate : 25.000 fps
Original frame rate : 23.976 fps
Resolution : 8 bits
Colorimetry : 4:2:0
Scan type : Progressive
Bits/(Pixel*Frame) : 0.183
Stream size : 744 MiB (89%)
Title : BD Video by Arihant

Language : English

Audio
ID : 2
Format : MPEG Audio
Format version : Version 1
Format profile : Layer 3
Mode : Joint stereo
Codec ID/Hint : MP3
Duration : 1h 18mn
Bit rate mode : Constant
Bit rate : 128 Kbps
Channel(s) : 2 channels
Sampling rate : 44.1 KHz
Video delay : 1s 500ms
Stream size : 72.3 MiB (9%)
Title : Hindi Audio by Arihant
Writing library : LAME3.98.2
Language : Hindi

Screenshots:
image

image

image

image

image

image

image

image

image

image


TORRENT ADDED PLEASE SEED IT AS LONG AS POSSIBLE I TRIED MY BEST TO RIP IN BEST QUALITY


Cats and Dogs The Revenge of Kitty Galore 2010 Hindi BDrip by Arihant !!!Team TDT!!!/Cats and Dogs The Revenge of Kitty Galore 2010 Hindi BDrip by Arihant !!!Team TDT!!!.mkv 872.875 MB
Cats and Dogs The Revenge of Kitty Galore 2010 Hindi BDrip by Arihant !!!Team TDT!!!/Sample.mkv 10.493 MB
Gathering some info...

Register and log in Isohunt and see no captcha anymore!

4000 symbols left
Hash 3e7c82ded5a3308eada9266e67d75f589f45960b

Related torrents for "Cats and Dogs The Revenge of Kitty Galore 2010 Hindi BDrip vkkr"

Torrent search:

hindi 2010 bd