imdb
rating

4.7
Game of Death

Game of Death (2010)

Action, Adventure, Thriller

Full description
quality   h264 screener dvdrip x264 dvdr hd bd

Game of Death 2010 DVDSCr H264

Size 740.928 MB   5 seeders     Added 2010-12-12 05:14:59

Stream torrent
Starting‥ You need BitLord! Get it from 1BitLord.com
To download or stream you need BitLord. Visit them at BitLord.com

gameofdeat.jpg

Game of Death (2010)

Action | Adventure - 2010 (USA)

Secret Ops agent Marcus is sent to Detroit to take out an arms dealer and the head of the hedge fund that is financing him. His CIA backup has other plans and turns on him and it's a fight to survive in a hospital.

Cast

Wesley Snipes Wesley Snipes ... Agent Marcus
Zoe Bell Zoe Bell
Gary Daniels Gary Daniels ... Zander
Robert Davi Robert Davi ... Smith
Simon Rhee Simon Rhee ... Stairwell assasin
Richard Goteri Richard Goteri ... The Visitor
Ele Bardha Ele Bardha ... Security Guy #1
Vladimir Tevlovski Vladimir Tevlovski ... Agent
Frank Zieger Frank Zieger ... Rooftop Cop
Ron Balicki Ron Balicki ... Jimmy
Michael Mili Michael Mili
Quinn Duffy Quinn Duffy ... Redvale
Robert Oppel Robert Oppel ... Mental Lou
Denney Pierce Denney Pierce ... Assassin #1
Darcy Leutzinger Darcy Leutzinger ... SWAT Commander

General
Complete name : Game Of Death 2010 DVDSCr H264 BSBTgame of death star1.m4v
Format : MPEG-4
Format profile : Base Media / Version 2
Codec ID : mp42
File size : 707 MiB
Duration : 1h 22mn
Overall bit rate : 1 199 Kbps
Encoded date : UTC 2010-12-11 13:22:27
Tagged date : UTC 2010-12-11 14:19:50
Writing application : HandBrake 0.9.4 2009112300

Video
ID : 1
Format : AVC
Format/Info : Advanced Video Codec
Format settings, CABAC : Yes
Format settings, ReFrames : 3 frames
Codec ID : avc1
Codec ID/Info : Advanced Video Coding
Duration : 1h 22mn
Bit rate mode : Variable
Bit rate : 1 036 Kbps
Width : 720 pixels
Height : 304 pixels
Display aspect ratio : 2.35:1
Frame rate mode : Variable
Frame rate : 24.971 fps
Minimum frame rate : 12.500 fps
Maximum frame rate : 25.000 fps
Color space : YUV
Chroma subsampling : 4:2:0
Bit depth : 8 bits
Scan type : Progressive
Bits/(Pixel*Frame) : 0.190
Stream size : 610 MiB (86%)
Writing library : x264 core 79
Encoded date : UTC 2010-12-11 13:22:27
Tagged date : UTC 2010-12-11 14:19:50
Color primaries : BT.601-6 525, BT.1358 525, BT.1700 NTSC, SMPTE 170M
Transfer characteristics : BT.709-5, BT.1361
Matrix coefficients : BT.601-6 525, BT.1358 525, BT.1700 NTSC, SMPTE 170M

Audio
ID : 2
Format : AAC
Format/Info : Advanced Audio Codec
Format version : Version 4
Format profile : LC
Codec ID : 40
Duration : 1h 22mn
Bit rate mode : Variable
Bit rate : 159 Kbps
Maximum bit rate : 231 Kbps
Channel(s) : 2 channels
Channel positions : Front: L R
Sampling rate : 48.0 KHz
Compression mode : Lossy
Stream size : 93.8 MiB (13%)
Encoded date : UTC 2010-12-11 13:22:27
Tagged date : UTC 2010-12-11 14:19:50

Text
ID : 3
Format : Apple text
Codec ID : text
Duration : 1h 22mn
Bit rate : 0
Stream size : 14.0 Bytes (0%)
Encoded date : UTC 2010-12-11 13:22:27
Tagged date : UTC 2010-12-11 14:19:50

Trackers

<table width="90%" border="0" align="center" cellpadding="0" cellspacing="0"><tr><td class="quotecodeheader"> Code:</td> </tr><tr><td class="codebody">http://fr33dom.h33t.com:3310/announce

http://tracker.openbittorrent.com:80/announce

http://nemesis.1337x.org/announce

http://genesis.1337x.org:1337/announce

http://tracker.publicbt.com:80/announce

http://exodus.1337x.org/announce

http://torrent-download.to:5869/announce</td> </tr></table>

Screens

10cu8up.png
fa23xi.png
15mxrmv.jpg
2cnfx0.png
nmhkyx.png
Game Of Death 2010 DVDSCr H264 BSBT/game of death star1.m4v 740.921 MB
Game Of Death 2010 DVDSCr H264 BSBT/visit us at WWW.Blackstarbt.net.nfo 6.79 KB
Gathering some info...

Register and log in Isohunt and see no captcha anymore!

4000 symbols left
Hash d7cf3262f211fa9ac15cd3899beeabb78aaa94c4

Related torrents for "Game of Death 2010 DVDSCr H264"

Torrent search:

h264 screener 2010