imdb
rating

6.8
The A-Team

The A-Team (2010)

Action, Adventure, Comedy, Crime, Thriller

Full description
quality   x264 h264 dvdrip telesync cam

Ayyanar (2010) ~ Tamil Kollywood ~ CAM Rip - x264 - 500MBRip - Team IST

Size 523.731 MB   0 seeders     Added 2010-12-12 13:03:01

Stream torrent
Starting‥ You need BitLord! Get it from BitLord.com
10
To download or stream you need BitLord. Visit them at BitLord.com
<center><span style="font-size: 4px"><span style="color: red"><span class="bold">Ayyanar (2010)CAM Rip - x264 - 500MBRip - Team IST</span></span></span></center>



<center>420x.jpg</center>

<table width="90%" border="0" align="center" cellpadding="0" cellspacing="0"><tr><td class="quotecodeheader"> Code:</td> </tr><tr><td class="codebody">
<center><span class="bold">General</span></center>
<center>Complete name : Ayyanar (2010)CAM Rip - x264 - 500MBRip - Team IST.m4v</center>
<center>Format : MPEG-4</center>
<center>Format profile : Base Media / Version 2</center>
<center>Codec ID : mp42</center>
<center>File size : 499 MiB</center>
<center>Duration : 2h 7mn</center>
<center>Overall bit rate : 546 Kbps</center>


<center><span class="bold">Video</span></center>
<center>ID : 1</center>
<center>Format : AVC</center>
<center>Format/Info : Advanced Video Codec</center>
<center>Format profile : Main@L2.1</center>
<center>Format settings, CABAC : Yes</center>
<center>Format settings, ReFrames : 2 frames</center>
<center>Codec ID : avc1</center>
<center>Codec ID/Info : Advanced Video Coding</center>
<center>Duration : 2h 7mn</center>
<center>Bit rate mode : Variable</center>
<center>Bit rate : 414 Kbps</center>
<center>Width : 608 pixels</center>
<center>Height : 208 pixels</center>
<center>Display aspect ratio : 1.999</center>
<center>Frame rate mode : Variable</center>
<center>Frame rate : 29.970 fps</center>
<center>Minimum frame rate : 14.985 fps</center>
<center>Maximum frame rate : 29.970 fps</center>
<center>Resolution : 8 bits</center>
<center>Colorimetry : 4:2:0</center>
<center>Scan type : Progressive</center>
<center>Bits/(Pixel*Frame) : 0.109</center>
<center>Stream size : 378 MiB (76%)</center>
<center>Writing library : x264 core 79</center>


<center><span class="bold">Audio</span></center>
<center>ID : 2</center>
<center>Format : AAC</center>
<center>Format/Info : Advanced Audio Codec</center>
<center>Format version : Version 4</center>
<center>Format profile : LC</center>
<center>Format settings, SBR : No</center>
<center>Codec ID : 40</center>
<center>Duration : 2h 7mn</center>
<center>Bit rate mode : Variable</center>
<center>Bit rate : 128 Kbps</center>
<center>Maximum bit rate : 192 Kbps</center>
<center>Channel(s) : 2 channels</center>
<center>Channel positions : Front: L R</center>
<center>Sampling rate : 48.0 KHz</center>

Stream size : 117 MiB (23%)
</td> </tr></table>







<center>vlcsnap2010121122h13m27.png
<center>vlcsnap2010121122h14m20.png</center>
<center>vlcsnap2010121122h14m36.png</center>

<center>vlcsnap2010121122h14m44.png</center>
<center>vlcsnap2010121122h15m01.png</center>
<center>vlcsnap2010121122h15m15.png</center>
<center>vlcsnap2010121122h15m23.png</center>
<center>vlcsnap2010121122h15m34.png</center>
<center>vlcsnap2010121122h16m03.png</center>


<center>[URL="http://img841.imageshack.us/i/ayyanar2010camripx26450.jpg/"]ayyanar2010camripx26450.jpg</center>




<center><span style="font-size: 5px"><span style="color: red"><span class="bold">Seed Back An Share With Credits !</span></span></span></center>

</center>
Ayyanar (2010)CAM Rip - x264 - 500MBRip - Team IST/-MusicKingz-.png 68.345 KB
Ayyanar (2010)CAM Rip - x264 - 500MBRip - Team IST/Ayyanar (2010)CAM Rip - x264 - 500MBRip - Team IST.jpg 94.864 KB
Ayyanar (2010)CAM Rip - x264 - 500MBRip - Team IST/Ayyanar (2010)CAM Rip - x264 - 500MBRip - Team IST.m4v 523.568 MB
Gathering some info...

Register and log in Isohunt and see no captcha anymore!

4000 symbols left
Hash 487aace95d1da4668496d09e5d6a6b0f38f26c65

Related torrents for "Ayyanar (2010) ~ Tamil Kollywood ~ CAM Rip - x264 - 500MBRip - Team IST"

Torrent search:

cam x264 2010