Mar Jawaan Ghur Khake (2010) 1CD - PDVDrip - XViD

Size 729.348 MB   0 seeders     Added 2010-12-16 09:06:46

Stream torrent
Starting‥ You need BitLord! Get it from BitLord.com
To download or stream you need BitLord. Visit them at BitLord.com
Mar Jawaan Ghur Khake (2010)1CD - PDVDrip - XViD



15208226165238897419.jpg



<div class="quote">General

Complete name                    : Mar Jawaan Ghur Khake (2010)1CD - PDVDrip - XViD.avi

Format                           : AVI

Format/Info                      : Audio Video Interleave

Format profile                   : OpenDML

File size                        : 696 MiB

Duration                         : 1h 59mn

Overall bit rate                 : 813 Kbps

Writing application              : AVI-Mux GUI 1.17.8.3, Feb 16 201019:42:50



Video

ID                               : 0

Format                           : MPEG-4 Visual

Format profile                   : Advanced Simple@L5

Format settings, BVOP            : Yes

Format settings, QPel            : Yes

Format settings, GMC             : No warppoints

Format settings, Matrix          : Default (H.263)

Codec ID                         : XVID

Codec ID/Hint                    : XviD

Duration                         : 1h 59mn

Bit rate                         : 654 Kbps

Width                            : 604 pixels

Height                           : 244 pixels

Display aspect ratio             : 2.475

Frame rate                       : 23.976 fps

Color space                      : YUV

Chroma subsampling               : 4:2:0

Bit depth                        : 8 bits

Scan type                        : Progressive

Bits/(Pixel*Frame)               : 0.185

Stream size                      : 559 MiB (80%)

Writing library                  : XviD 1.2.1 (UTC 2008-12-04)



Audio

ID                               : 1

Format                           : MPEG Audio

Format version                   : Version 1

Format profile                   : Layer 3

Mode                             : Joint stereo

Mode extension                   : MS Stereo

Codec ID                         : 55

Codec ID/Hint                    : MP3

Duration                         : 1h 59mn

Bit rate mode                    : Variable

Bit rate                         : 150 Kbps

Minimum bit rate                 : 32.0 Kbps

Channel(s)                       : 2 channels

Sampling rate                    : 48.0 KHz

Stream size                      : 129 MiB (19%)

Alignment                        : Aligned on interleaves

Interleave, duration             : 24 ms (0.58 video frame)

Interleave, preload duration     : 163 ms

Title                            : VTS_01_1 T80 2_0ch 192Kbps DELAY 0ms

Writing library                  : LAME3.98r

Encoding settings                : -m j -V 5 -q 0 -lowpass 16.5 --vbr-new -b 32</div>
Mar Jawaan Ghur Khake (2010)1CD - PDVDrip - XViD/Mar Jawaan Ghur Khake (2010)1CD - PDVDrip - XViD.avi 729.347 MB
Mar Jawaan Ghur Khake (2010)1CD - PDVDrip - XViD/Torrent Tracked By TEam MJY.txt 343 B
Gathering some info...

Register and log in Isohunt and see no captcha anymore!

4000 symbols left
Hash 11330a384cf1dba3f0367c0a4f13e0a3737bd014

Related torrents for "Mar Jawaan Ghur Khake (2010) 1CD - PDVDrip - XViD"

Torrent search:

2010