imdb
rating

6.3
Knight and Day

Knight and Day (2010)

Action, Comedy, Romance

Full description

Knight And Day 2010 EXTENDED DVDRip XviD-EXViD

Size 1.475 GB   0 seeders     Added 2010-12-16 19:10:25

Stream torrent
Starting‥ You need BitLord! Get it from BitLord.com
To download or stream you need BitLord. Visit them at BitLord.com



 
Unknown ObjectKita informacija:
Knight.And.Day.2010.EXTENDED.DVDRip.XviD-EXViD

http://www.imdb.com/title/tt1013743/

Subtitles: EN, FR, DE, NL, AR, TR
Date: 2010.12
Director: James Mangold
Genres: Action Adventure Comedy Thriller

Plot: June Havens finds her everyday life tangled with that of a secret agent who has realized he
isn't supposed to survive his latest mission. As their campaign to stay alive stretches across the globe, they soon learn that all they can count on is each other.

Credited cast:

Tom Cruise ... Roy Miller
Cameron Diaz ... June Havens
Peter Sarsgaard ... Fitzgerald
Jordi Moll ... Antonio
Viola Davis ... Director George
Paul Dano ... Simon Feck
Falk Hentschel ... Bernhard
Marc Blucas ... Rodney
Lennie Loftin ... Braces
Maggie Grace ... April Havens
Rich Manley ... Danny
Dale Dye ... Frank Jenkins
Celia Weston ... Molly
Gal Gadot ... Naomi
Jack O'Connell ... Wilmer (as Jack A. O'Connell)

Stats:
Format : AVI
Format/Info : Audio Video Interleave
File size : 1.37 GiB
Duration : 1h 52mn
Overall bit rate : 1 744 Kbps
Writing application : VirtualDubMod 1.5.10.2 (build 2540/release)
Writing library : VirtualDubMod build 2540/release

Video
ID : 0
Format : MPEG-4 Visual
Format profile : Advanced SimpleL5
Format settings, BVOP : Yes
Format settings, QPel : No
Format settings, GMC : No warppoints
Format settings, Matrix : Default (H.263)
Muxing mode : Packed bitstream
Codec ID : XVID
Codec ID/Hint : XviD
Duration : 1h 52mn
Bit rate : 1 287 Kbps
Width : 624 pixels
Height : 256 pixels
Display aspect ratio : 2.40:1
Frame rate : 25.000 fps
Color space : YUV
Chroma subsampling : 4:2:0
Bit depth : 8 bits
Scan type : Progressive
Bits/(PixelFrame) : 0.322
Stream size : 1.01 GiB (74)
Writing library : XviD 1.2.1 (UTC 2008-12-04)

Audio
ID : 1
Format : AC-3
Format/Info : Audio Coding 3
Mode extension : CM (complete main)
Codec ID : 2000
Duration : 1h 52mn
Bit rate mode : Constant
Bit rate : 448 Kbps
Channel(s) : 6 channels
Channel positions : Front: L C R, Side: L R, LFE
Sampling rate : 48.0 KHz
Bit depth : 16 bits
Stream size : 360 MiB (26)
Alignment : Split accross interleaves
Interleave, duration : 40 ms (1.00 video frame)
Interleave, preload duration : 500 ms

Release notes: This is the 113min R2 extended DVD which adds some more scenes, starting with the very first one.


vlcsnap2010121319h25m53.th.png vlcsnap2010121319h25m55.th.png vlcsnap2010121319h25m58.th.png vlcsnap2010121319h26m00.th.png Kategorija: | EN Dydis: 1.37 GB Show/Hide Files: Failo pavadinimas Dydis exvid-knightdayext-cd1.avi 700.46 MB exvid-knightdayext-cd1.idx 414.48 KB exvid-knightdayext-cd1.rar 2.53 MB exvid-knightdayext-cd2.avi 701.31 MB exvid-knightdayext-cd2.idx 324.24 KB exvid-knightdayext-cd2.rar 1.89 MB exvid-knightdayext.nfo 7.39 KB

Knight.And.Day.2010.EXTENDED.DVDRip.XviD-EXViD-/exvid-knightdayext-cd1.avi 734.487 MB
Knight.And.Day.2010.EXTENDED.DVDRip.XviD-EXViD-/exvid-knightdayext-cd1.idx 424.426 KB
Knight.And.Day.2010.EXTENDED.DVDRip.XviD-EXViD-/exvid-knightdayext-cd1.rar 2.648 MB
Gathering some info...

Register and log in Isohunt and see no captcha anymore!

4000 symbols left
Hash a69c49ab7615071f3e3711e6d5a29a91e97dd5f8

Related torrents for "Knight And Day 2010 EXTENDED DVDRip XviD-EXViD"

Torrent search:

dvdrip 2010