imdb
rating

7.4
Sanctuary

Sanctuary

Full description

Sanctuary S03E09 AVC MKV (ENG+NL SUBS) RHoek

Size 1.173 GB   0 seeders     Added 2010-12-17 03:12:27

Stream torrent
Starting‥ You need BitLord! Get it from BitLord.com
To download or stream you need BitLord. Visit them at BitLord.com
Opmerking voor al mijn uploads; vanaf heden zal ik niet meer bijseeden als daar om gevraagd wordt. Ik seed alles tot er minimaal 5 seeders over zijn (liever meer) en stop daarna mijn up. Ik ga langzaam aan stoppen met het gebeuren en op zoek naar andere uitdagingen.



Remark for all my uploads; from now on I will not re-seed anymore when asked. I will seed untill there are 5 or more seeders and then I stop. I am slowly retiring to have a look for something else.

~~~~~~~~~~~~~~~~~~~~~~~~~~~~~~~~~~~~~~~~~~~~~~~~~~~~~~~~~



FOR ENGLISH, PLEASE SCROLL DOWN!



jabhkaadc.jpg

jabhlaadc.jpg

~~~~~~~~~~~~~~~~~~~~~~~~~~~~~~~~~~~~~~~~~~~~~~~~~~~~~~~~~

VERHAALLIJN:

¯¯¯¯¯¯¯¯¯¯¯¯



De serie gaat over de 157 jaar oude dokter Helen Magnus, een van de eerste vrouwelijke doktoren in de Royal College in de tijd van Victoriaans Engeland. Helen was verloofd met de seriemoordenaar Jack the Ripper en had samen met hem een dochter genaamd Ashley. Ashley weet echter niet dat Jack the Ripper haar vader is. Doktor Magnus' vader startte een vrijplaats (sanctuary) voor bovennatuurlijke wezens, verzameld van plekken over de gehele wereld. In haar werk met deze wezens verwierf de dokter haar grote ouderdom.



~~~~~~~~~~~~~~~~~~~~~~~~~~~~~~~~~~~~~~~~~~~~~~~~~~~~~~~~~

Ondertitelingen: Engels door onbekend & Nederlands door r3po van bierdopje. Top werk weer!

Menu: Nee.

Covers: Nee.

Genre : Mysterie



IMDb: http://www.imdb.com/title/tt0965394/

Officiële website: http://www.sanctuaryforall.com



~~~~~~~~~~~~~~~~~~~~~~~~~~~~~~~~~~~~~~~~~~~~~~~~~~~~~~~~~

PLOT:

¯¯¯¯¯

Stem cells, gene therapy, transplants, cloning; The very meaning of the word "humanity" changes daily in the modern world. But there is a darker side to the evolution of mankind, a truth only a few brave souls are willing to face: There are monsters loose in the world. And they are the key to the future of our race.



~~~~~~~~~~~~~~~~~~~~~~~~~~~~~~~~~~~~~~~~~~~~~~~~~~~~~~~~~

Subtitles: English and Dutch - custom

Menu: No

Covers: No.

Genre : Mystery



IMDb: http://www.imdb.com/title/tt0965394/

Official website: http://www.sanctuaryforall.com



~~~~~~~~~~~~~~~~~~~~~~~~~~~~~~~~~~~~~~~~~~~~~~~~~~~~~~~~~

VIDEO AND AUDIO INFORMATION

¯¯¯¯¯¯¯¯¯¯¯¯¯¯¯¯¯¯¯¯¯¯¯¯¯¯¯¯¯¯

Video

ID                               : 2

Format                           : AVC

Format/Info                      : Advanced Video Codec

Format profile                   : High@L3.1

Format settings, CABAC           : Yes

Format settings, ReFrames        : 3 frames

Muxing mode                      : Container profile=Unknown@3.1

Codec ID                         : V_MPEG4/ISO/AVC

Duration                         : 43mn 0s

Bit rate                         : 3 252 Kbps

Width                            : 1 280 pixels

Height                           : 720 pixels

Display aspect ratio             : 16:9

Frame rate                       : 23.976 fps

Color space                      : YUV

Chroma subsampling               : 4:2:0

Bit depth                        : 8 bits

Scan type                        : Progressive

Bits/(Pixel*Frame)               : 0.147

Stream size                      : 978 MiB (87%)

Writing library                  : x264 core 85 r1442tw

Encoding settings                : cabac=1 / ref=3 / deblock=1:0:0 / analyse=0x3:0x113 / me=hex / subme=6 / psy=1 / psy_rd=1.00:0.00 / mixed_ref=0 / me_range=16 / chroma_me=1 / trellis=1 / 8x8dct=1 / cqm=0 / deadzone=21,11 / fast_pskip=1 / chroma_qp_offset=-2 / threads=30 / sliced_threads=0 / nr=0 / decimate=1 / mbaff=0 / constrained_intra=0 / bframes=6 / b_pyramid=1 / b_adapt=1 / b_bias=0 / direct=1 / wpredb=1 / wpredp=0 / keyint=240 / keyint_min=24 / scenecut=40 / intra_refresh=0 / rc_lookahead=40 / rc=2pass / mbtree=1 / bitrate=3252 / ratetol=1.0 / qcomp=0.60 / qpmin=10 / qpmax=51 / qpstep=4 / cplxblur=20.0 / qblur=0.5 / ip_ratio=1.40 / aq=1:1.00

Language                         : English



Audio

ID                               : 1

Format                           : AC-3

Format/Info                      : Audio Coding 3

Mode extension                   : CM (complete main)

Codec ID                         : A_AC3

Duration                         : 43mn 0s

Bit rate mode                    : Constant

Bit rate                         : 384 Kbps

Channel(s)                       : 6 channels

Channel positions                : Front: L C R, Side: L R, LFE

Sampling rate                    : 48.0 KHz

Bit depth                        : 16 bits

Stream size                      : 118 MiB (11%)



*********************************

Brought to you by Ren Höek

*********************************
Sanctuary S03E09 AVC MKV (ENG+NL SUBS) RHoek/Info/Sanctuary information.txt 4.732 KB
Sanctuary S03E09 AVC MKV (ENG+NL SUBS) RHoek/S03E09 Vigilante/Vigilante (ENG).srt 61.234 KB
Sanctuary S03E09 AVC MKV (ENG+NL SUBS) RHoek/S03E09 Vigilante/Vigilante.mkv 1.173 GB
Gathering some info...

Register and log in Isohunt and see no captcha anymore!

4000 symbols left
Hash 527241748aed5395cfcc779ecb17f3093f571717

Related torrents for "Sanctuary S03E09 AVC MKV (ENG+NL SUBS) RHoek"

Torrent search:

season 03 english subs episode 09