imdb
rating

 
Friends

Friends

Full description

Dosti Friends Forever (2005) 1CD - DVDRip - XviD

Size 734.528 MB   20 seeders     Added 2010-12-17 12:15:25

Stream torrent
Starting‥ You need BitLord! Get it from 1BitLord.com
6.2
To download or stream you need BitLord. Visit them at BitLord.com
dosti_gallery_02_470x300.jpg



<div class="quote">General

Complete name                    : Dosti Friends Forever (2005)1CD - DVDRip - XviD.avi

Format                           : AVI

Format/Info                      : Audio Video Interleave

File size                        : 701 MiB

Duration                         : 1h 5mn

Overall bit rate                 : 1 497 Kbps

Writing application              : VirtualDubMod 1.5.10.1 (build 2366/release)

Writing library                  : VirtualDubMod build 2366/release



Video

ID                               : 0

Format                           : MPEG-4 Visual

Format profile                   : Advanced Simple@L5

Format settings, BVOP            : Yes

Format settings, QPel            : No

Format settings, GMC             : No warppoints

Format settings, Matrix          : Custom

Codec ID                         : XVID

Codec ID/Hint                    : XviD

Duration                         : 1h 5mn

Bit rate                         : 1 356 Kbps

Width                            : 640 pixels

Height                           : 288 pixels

Display aspect ratio             : 2.222

Frame rate                       : 23.976 fps

Color space                      : YUV

Chroma subsampling               : 4:2:0

Bit depth                        : 8 bits

Scan type                        : Progressive

Bits/(Pixel*Frame)               : 0.307

Stream size                      : 634 MiB (91%)

Writing library                  : XviD 1.1.0 RC (UTC 2005-11-22)



Audio

ID                               : 1

Format                           : MPEG Audio

Format version                   : Version 1

Format profile                   : Layer 3

Mode                             : Joint stereo

Codec ID                         : 55

Codec ID/Hint                    : MP3

Duration                         : 1h 5mn

Bit rate mode                    : Variable

Bit rate                         : 128 Kbps

Channel(s)                       : 2 channels

Sampling rate                    : 48.0 KHz

Stream size                      : 60.1 MiB (9%)

Alignment                        : Aligned on interleaves

Interleave, duration             : 24 ms (0.58 video frame)

Interleave, preload duration     : 232 ms

Writing library                  : LAME3.96r

Encoding settings                : -m j -V 4 -q 2 -lowpass 17.5 --abr 128

Language                         : Hindi / Hindi</div>
Dosti Friends Forever (2005)1CD - DVDRip - XviD/Dosti Friends Forever (2005)1CD - DVDRip - XviD.avi 734.527 MB
Dosti Friends Forever (2005)1CD - DVDRip - XviD/Torrent Tracked By TEam MJY.txt 343 B
Gathering some info...

Register and log in Isohunt and see no captcha anymore!

4000 symbols left
Hash ba1621a82aa0e07f1476e2415a503ddb7fc272b3

Related torrents for "Dosti Friends Forever (2005) 1CD - DVDRip - XviD"

Torrent search:

dvdrip 2005