imdb
rating

7.4
Z

Z (2015)

Drama

Full description
quality   dvdrip dvdr

Arundathi~DvD-Rip[Xvid-1 58Gb]~TeamB S Z

Size 1.697 GB   0 seeders     Added 2010-12-17 18:09:02

Stream torrent
Starting‥ You need BitLord! Get it from BitLord.com
To download or stream you need BitLord. Visit them at BitLord.com
arundhatiwallpaper.jpg

85230863174952469266.png  


::Video Specification::

  Video ID                               : 0 Format                           : MPEG-4 Visual Format profile                   : Advanced Simple@L5 Format settings, BVOP            : Yes Format settings, QPel            : No Format settings, GMC             : No warppoints Format settings, Matrix          : Default (H.263) Codec ID                         : XVID Codec ID/Hint                    : XviD Duration                         : 2h 3mn Bit rate                         : 598 Kbps Width                            : 720 pixels Height                           : 404 pixels Display aspect ratio             : 16:9 Frame rate                       : 29.970 fps Color space                      : YUV Chroma subsampling               : 4:2:0 Bit depth                        : 8 bits Scan type                        : Progressive Compression mode                 : Lossy Bits/(Pixel*Frame)               : 0.069 Stream size                      : 528 MiB (33%) Writing library                  : XviD 1.2.1 (UTC 2008-12-04)   :: Audio Specification::   Audio ID                               : 1 Format                           : MPEG Audio Format version                   : Version 1 Format profile                   : Layer 3 Codec ID                         : 55 Codec ID/Hint                    : MP3 Duration                         : 44mn 56s Bit rate mode                    : Constant Bit rate                         : 320 Kbps Channel(s)                       : 2 channels Sampling rate                    : 48.0 KHz Compression mode                 : Lossy Stream size                      : 103 MiB (6%) Alignment                        : Aligned on interleaves Interleave, duration             : 26 ms (0.79 video frame) Writing library                  : LAME3.98.2     81234839550700664447.png   vlcsnap2010121714h47m21.pngvlcsnap2010121718h09m36.pngvlcsnap2010121718h47m26.pngvlcsnap2010121718h47m36.pngvlcsnap2010121718h47m59.png   apfnko.gif
Arundathi~DvD-Rip[Xvid-1.58Gb]~TeamB.S.Z/Arundathi~DvD-Rip[Xvid-1.58Gb]~TeamB.S.Z.avi 1.697 GB
Gathering some info...

Register and log in Isohunt and see no captcha anymore!

4000 symbols left
Hash 9c486efc7b1a269563d081977b3cee7f90faa401

Related torrents for "Arundathi~DvD-Rip[Xvid-1 58Gb]~TeamB S Z"